<?xml version="1.0" standalone="no"?>
<!DOCTYPE svg PUBLIC "-//W3C//DTD SVG 1.1//EN" "http://www.w3.org/Graphics/SVG/1.1/DTD/svg11.dtd" >
<svg xmlns="http://www.w3.org/2000/svg">
<metadata>Generated by IcoMoon</metadata>
<defs>
<font id="font-icons" horiz-adv-x="512">
<font-face units-per-em="512" ascent="480" descent="-32" />
<missing-glyph horiz-adv-x="512" />
<glyph unicode="&#x20;" d="" horiz-adv-x="256" />
<glyph unicode="&#xe600;" d="M426.666 410.667v42.666h-128v-42.666h42.666v-384h-42.666v-42.666h128v42.666h-42.666v384zM298.666 360.704c0 2.219-4.16 4.886-6.827 6.784-11.755 8.768-24.747 14.486-39.168 17.131-14.422 2.666-31.254 3.989-50.624 3.989-14.037 0-28.458-2.218-43.2-6.741-14.762-4.502-27.306-9.962-37.674-16.448-12.011-7.595-21.739-16.256-29.227-25.92-7.488-9.685-11.242-19.84-11.242-30.442 0-10.154 2.71-19.306 8.128-27.498s13.888-12.267 25.408-12.267c12.906 0 22.998 3.328 30.272 10.048 7.274 6.656 10.901 14.038 10.901 22.123 0 7.594-1.109 15.893-3.286 24.896-2.219 8.981-3.286 15.786-3.286 20.394 3.691 3.925 10.090 7.659 19.2 11.243 9.088 3.584 18.965 5.354 29.568 5.354 15.446 0 27.37-3.157 35.798-9.493 8.427-6.358 14.934-13.781 19.541-22.315 4.139-7.616 3.050-24.875 3.050-24.875v-50.88c0-5.994-28.95-14.293-60.672-24.896s-51.008-17.856-61.398-21.781c-8.278-3.243-16.256-7.574-25.728-12.971-9.451-5.44-16.64-11.584-22.422-18.517-7.382-8.298-12.694-17.622-16.384-27.99s-5.398-22.123-5.398-35.286c0-25.365 8.298-45.888 24.789-61.568 16.469-15.659 37.546-23.531 63.126-23.531 24.214 0 44.906 9.493 62.080 18.24 17.216 8.81 33.302 21.846 48.278 43.178h2.091c3.008-21.334 9.685-33.514 20.394-41.942l13.909-0.726v312.704zM261.589 107.157c-8.534-10.858-19.029-20.245-31.466-28.245-12.459-7.957-26.88-11.968-43.243-11.968-15.466 0-28.181 4.502-38.208 13.546-10.048 9.002-15.040 23.082-15.040 42.24 0 14.784 3.328 27.584 10.048 38.315 6.656 10.774 15.786 20.053 27.286 27.904 12.714 8.341 26.411 15.253 41.173 20.822 14.742 5.546 29.824 10.624 49.45 16.362v-118.976z" />
<glyph unicode="&#xe601;" d="M21.334 405.333v-149.334h21.334v-234.667h426.666v234.667h21.334v149.334h-469.334zM426.666 64h-341.334v192h341.334v-192zM448 298.667h-384v64h384v-64zM384 234.667h-256v-149.334h256v149.334zM362.666 106.667h-213.333v106.666h213.333v-106.666zM341.334 192h-170.667v-21.334h170.667v21.334zM277.334 149.333h-106.666v-21.334h106.666v21.334z" />
<glyph unicode="&#xe602;" d="M448 234.667v149.333h-64v64h-341.334v-213.333h-21.334v-42.667h21.334v-234.666h426.666v234.666h21.334v42.667h-42.666zM405.334 341.333v-106.667h-256v106.667h256zM85.334 405.333h256v-21.334h-234.667v-149.333h-21.334v170.667zM426.666-0h-341.334v192h341.334v-192zM384 170.667h-256v-149.334h256v149.333zM362.666 42.667h-213.333v106.666h213.333v-106.666zM341.334 128h-170.667v-21.334h170.667v21.334zM277.334 85.333h-106.666v-21.334h106.666v21.334z" />
<glyph unicode="&#xe603;" d="M21.334 341.333v-277.333h448v277.333h-448zM64 106.667v167.808l331.606-167.808h-331.606zM426.666 129.088l-136.064 72.683 136.064 72.704v-145.387zM257.877 225.963l-143.061 72.704h281.493l-138.432-72.704z" />
<glyph unicode="&#xe604;" d="M277.334 341.333h-128v-42.667h128v42.667zM341.334 277.333h-192v-21.334h192v21.334zM341.334 234.667h-192v-21.334h192v21.334zM426.666 213.312v234.688h-362.666v-235.37l-42.666 22.038v-277.333h448v277.163l-42.666-21.184zM106.666 405.333h277.334v-211.392l-42.666-22.87v20.928h-192v-21.334h191.253l-95.829-51.37-138.090 71.317v214.72zM64-0v167.808l312.555-167.808h-312.555zM426.666 22.421l-136.064 72.683 136.064 72.704v-145.387z" />
<glyph unicode="&#xe605;" d="M106.666 469.333v-64h-64v-448h362.666v64h64v448h-362.666zM362.666-0h-277.334v362.667h21.334v-341.334h256v-21.334zM426.666 64h-277.334v362.666h277.334v-362.666zM320 362.667h-128v-42.666h128v42.666zM384 298.667h-192v-21.333h192v21.333zM384 256h-192v-21.333h192v21.334zM384 213.333h-192v-21.334h192v21.334zM256 170.667h-64v-21.334h64v21.334z" />
<glyph unicode="&#xe606;" d="M461.717 213.333h-35.050v213.334h-362.666v-213.334h-28.95c-23.466 0-35.050-19.2-35.050-42.666v-42.666c0-23.466 11.584-42.666 35.050-42.666h28.95v-106.666h128v106.666h42.666v-106.666h170.666v106.666h56.384c23.466 0 50.283 19.2 50.283 42.666v42.666c0 23.466-26.837 42.666-50.283 42.666zM149.333 21.333h-42.666v64h42.666v-64zM298.666 21.333h-21.334v64h21.334v-64zM362.666 21.333h-21.334v64h21.334v-64zM384 213.333h-277.334v170.667h277.334v-170.667zM432.384 115.477c-17.962 0-32.49 14.57-32.49 32.512s14.55 32.512 32.49 32.512 32.534-14.57 32.534-32.512-14.592-32.512-32.534-32.512zM149.333 320h128v-42.666h-128zM149.333 256h192v-21.333h-192zM21.334 362.667h21.334v-106.666h-21.334zM448 320h21.334v-64h-21.334z" />
<glyph unicode="&#xe607;" d="M298.666 405.333v21.333c0 23.552-19.115 42.666-42.666 42.666h-85.334c-23.552 0-42.666-19.114-42.666-42.666v-21.333h-85.334v-64h-21.334v-149.334h42.666v106.666h384v-256h-234.667v-42.666h277.334v405.334h-192zM448 341.333h-362.666v21.333h85.334v64h85.334v-64h192v-21.333zM128 170.667h-64v-64h-64v-64h64v-64h64v64h64v64h-64z" />
<glyph unicode="&#xe608;" d="M298.666 384v21.334c0 23.552-19.115 42.666-42.666 42.666h-85.334c-23.552 0-42.666-19.115-42.666-42.666v-21.334h-85.334v-64h-21.334v-149.334h42.666v106.666h384v-256h-234.667v-42.666h277.334v405.334h-192zM448 320h-362.666v21.334h85.334v64h85.334v-64h192v-21.334zM158.891 52.885c0.853 3.584 1.088 7.296 1.088 11.115 0 3.84-0.512 7.531-1.344 11.115l32.917 19.69-18.944 28.928-31.040-19.776c-4.544 3.456-13.206 6.208-13.206 8.106v37.269h-43.392v-37.269c0-1.899-8.662-4.651-13.206-8.106l-31.040 19.776-18.944-28.928 32.917-19.69c-0.81-3.584-1.344-7.274-1.344-11.115 0-3.818 0.234-7.531 1.088-11.115l-33.152-19.69 18.41-28.95 32.043 19.798c4.566-3.456 13.227-6.208 13.227-8.128v-37.248h43.371v37.248c0 1.92 8.661 4.672 13.226 8.128l32.042-19.798 18.41 28.95-33.13 19.69zM106.666 29.888c-19.584 0.128-35.456 15.339-35.456 34.112s15.872 33.984 35.456 34.112c19.584-0.128 35.456-15.339 35.456-34.112s-15.872-33.984-35.456-34.112z" />
<glyph unicode="&#xe609;" d="M298.666 384v21.334c0 23.552-19.115 42.666-42.666 42.666h-85.334c-23.552 0-42.666-19.115-42.666-42.666v-21.334h-85.334v-64h-21.334v-149.334h42.666v106.666h384v-256h-234.667v-42.666h277.334v405.334h-192zM448 320h-362.666v21.334h85.334v64h85.334v-64h192v-21.334zM85.376 53.333l-15.85 40-31.638-39.424 52.053-69.781 85.76 139.413-31.424 18.454z" />
<glyph unicode="&#xe60a;" d="M256 279.040c-41.792 0-79.616-16.939-107.008-44.331l30.208-30.208c19.669 19.691 46.827 31.872 76.8 31.872s57.13-12.181 76.8-31.872l30.208 30.208c-27.392 27.392-65.216 44.331-107.008 44.331zM256 190.315c-17.664 0-32-14.358-32-32.022s14.336-32 32-32 32 14.336 32 32-14.336 32.022-32 32.022z" />
<glyph unicode="&#xe60b;" d="M148.992 193.749l30.208-30.208c19.669 19.669 46.827 31.872 76.8 31.872s57.13-12.202 76.8-31.872l30.208 30.208c-27.392 27.392-65.216 44.331-107.008 44.331s-79.616-16.939-107.008-44.331zM256 335.424c-68.672 0-130.838-27.84-175.829-72.832l30.251-30.25c37.29 37.312 88.79 60.416 145.579 60.416s108.288-23.104 145.578-60.416l30.25 30.25c-44.992 44.992-107.158 72.832-175.829 72.832zM256 149.333c-17.664 0-32-14.336-32-32s14.336-32 32-32 32 14.336 32 32-14.336 32-32 32z" />
<glyph unicode="&#xe60c;" d="M148.992 129.749l30.208-30.208c19.669 19.669 46.827 31.872 76.8 31.872s57.13-12.202 76.8-31.872l30.208 30.208c-27.392 27.37-65.216 44.331-107.008 44.331s-79.616-16.96-107.008-44.331zM80.171 198.592l30.251-30.25c37.29 37.312 88.79 60.416 145.579 60.416s108.288-23.104 145.578-60.416l30.25 30.25c-44.992 44.992-107.158 72.832-175.829 72.832s-130.838-27.84-175.829-72.832zM256 368.747c-95.552 0-182.037-38.72-244.672-101.355l30.272-30.272c54.934 54.934 130.774 88.96 214.4 88.96s159.466-34.026 214.4-88.96l30.272 30.272c-62.635 62.635-149.12 101.355-244.672 101.355zM256 85.333c-17.664 0-32-14.336-32-32s14.336-32 32-32 32 14.336 32 32-14.336 32-32 32z" />
<glyph unicode="&#xe60d;" d="M298.666 426.667v-85.333h-85.334v-85.334h-85.334v-85.334h-85.334v-170.667h405.334v426.666h-149.333zM149.333 42.667h-64v85.334h64v-85.334zM234.667 42.667h-64v170.667h64v-170.667zM320 42.667h-64v256h64v-256zM405.334 42.667h-64v341.334h64v-341.334z" />
<glyph unicode="&#xe60e;" d="M444.16 298.667c-8.789 24.832-32.49 42.667-60.288 42.667h-319.723c-35.264 0-63.936-28.715-63.936-64v-149.334c0-35.286 28.672-64 63.936-64h319.723c27.798 0 51.498 17.834 60.288 42.666h46.293v192h-46.293zM405.205 128c0-11.755-9.579-21.334-21.334-21.334h-319.723c-11.776 0-21.312 9.579-21.312 21.334v149.334c0 11.755 9.536 21.334 21.312 21.334h319.723c11.755 0 21.334-9.579 21.334-21.334v-149.334zM447.829 149.333h-21.334v106.667h21.334v-106.667zM149.398 277.333h63.958v-149.334h-63.958zM234.667 277.333h63.958v-149.334h-63.958zM351.914 277.333h-32v-149.334h32c17.579 0 31.957 19.2 31.957 42.666v64c0 23.466-14.378 42.667-31.957 42.667zM64.15 234.667v-64c0-23.466 14.379-42.666 31.978-42.666h31.957v149.334h-31.957c-17.6 0-31.978-19.2-31.978-42.667z" />
<glyph unicode="&#xe60f;" d="M213.291 288.043c43.498 0 78.976-32.661 84.267-74.709h75.008c-0.704 10.070-2.070 19.947-4.522 29.419l60.608 34.987-42.688 73.942-60.522-34.944c-19.094 18.795-42.88 32.683-69.44 40.042v69.93h-85.376v-69.93c-26.56-7.338-50.368-21.248-69.462-40.021l-60.502 34.922-42.688-73.941 60.566-34.966c-3.306-12.843-5.27-26.197-5.27-40.064s1.941-27.243 5.27-40.064l-60.566-34.986 42.688-73.92 60.48 34.923c19.094-18.794 42.922-32.683 69.482-40.022v-69.93h85.376v150.507c-12.608-7.339-27.072-11.861-42.709-11.861-47.126 0-85.334 38.208-85.334 85.334s38.208 85.355 85.334 85.355zM490.624 85.333c0 7.894-1.408 15.402-3.435 22.656l39.616 22.87-21.312 36.906-39.339-22.699c-10.688 10.88-24.32 18.666-39.531 22.635v45.632h-42.624v-45.632c-15.253-3.925-28.885-11.712-39.594-22.613l-39.274 22.678-21.312-36.906 39.531-22.805c-2.026-7.296-3.456-14.805-3.456-22.72s1.43-15.445 3.456-22.72l-39.531-22.805 21.312-36.906 39.274 22.678c10.709-10.901 24.363-18.688 39.594-22.613v-45.632h42.624v45.653c15.211 3.968 28.842 11.755 39.531 22.635l39.36-22.72 21.312 36.906-39.616 22.87c2.005 7.253 3.413 14.762 3.413 22.656zM405.248 42.709c-23.552 0-42.624 19.094-42.624 42.624s19.094 42.624 42.624 42.624 42.624-19.094 42.624-42.624-19.072-42.624-42.624-42.624z" />
<glyph unicode="&#xe610;" d="M383.936 256h-192v96l-138.538-138.667 138.538-138.667v96h193.002c23.040 0 41.664 19.072 41.664 42.666s-19.627 42.667-42.666 42.667z" />
<glyph unicode="&#xe611;" d="M298.666 64v192h96l-138.667 138.538-138.667-138.538h96v-193.003c0-23.040 19.072-41.664 42.666-41.664s42.666 19.627 42.666 42.666z" />
<glyph unicode="&#xe612;" d="M213.312 341.333v-192h-96l138.667-138.538 138.667 138.538h-96v193.002c0 23.040-19.072 41.664-42.666 41.664-23.616 0-42.666-19.626-42.666-42.666z" />
<glyph unicode="&#xe613;" d="M106.666 170.667h192v-96l138.538 138.667-138.538 138.667v-96h-193.002c-23.040 0-41.664-19.072-41.664-42.667s19.627-42.666 42.666-42.666z" />
<glyph unicode="&#xe614;" d="M294.784 403.627c-95.702 0-174.827-66.518-186.838-160.278l-81.024 15.68 79.744-117.952 117.952 79.68-74.176 14.358c10.048 60.181 72.298 125.824 145.92 125.824 80.427 0 146.048-68.928 146.048-149.376 0-80.448-80.214-145.877-144.214-145.877v-42.666c106.666 0 186.88 86.336 186.88 190.293s-86.336 190.315-190.293 190.315z" />
<glyph unicode="&#xe615;" d="M320 234.667v234.666h-106.666v-234.666h-84.331l135.744-135.766 135.744 135.766zM430.080 320h-67.413v-42.666h67.413c11.755 0 17.92-0.341 17.92-12.075v-160c0-17.664-10.966-41.258-28.587-41.258h-326.784c-17.621 0-28.587 23.594-28.587 41.259v160c0 11.733 6.165 12.074 17.92 12.074h67.414v42.667h-67.413c-35.285 0-60.587-19.456-60.587-54.742v-234.667c0-35.286 25.302-73.258 60.587-73.258h348.118c35.286 0 60.587 37.952 60.587 73.258v234.667c0 35.286-25.301 54.742-60.587 54.742zM448 30.592c0-11.755-6.166-30.592-17.92-30.592h-348.118c-11.755 0-17.92 18.837-17.92 30.592v32.278c0-6.762 16.534-20.182 28.587-20.182h326.784c12.032 0 28.587 13.418 28.587 20.182v-32.278z" />
<glyph unicode="&#xe616;" d="M469.034 281.152l-60.48 188.010-195.328-60.373-170.582-315.243 251.69-136.042 170.154 314.474c0.128 0.214 0.256 0.448 0.363 0.64l4.522 8.363-0.341 0.17zM378.24 291.52c-15.402-28.544-51.050-39.168-79.616-23.744-28.565 15.466-39.168 51.093-23.723 79.594 15.424 28.566 51.115 39.168 79.637 23.744 28.544-15.424 39.168-51.072 23.702-79.594z" />
<glyph unicode="&#xe617;" d="M320 384v64h-128v-64h-85.334v-42.666h298.666v42.666h-85.334zM277.717 384h-42.666v21.334h42.666v-21.334zM106.666 320v-320l42.666-42.666h213.333l42.666 42.666v320h-298.666zM170.667-0h-21.333v234.667h21.334v-234.667zM213.333-0h-21.333v234.667h21.334v-234.667zM256-0h-21.334v234.667h21.334v-234.667zM362.666-0h-85.334v234.667h85.334v-234.667zM362.666 256h-213.333v21.334h213.333v-21.334z" />
<glyph unicode="&#xe618;" d="M16.918 17.749l30.165-30.166 93.547 93.546-29.376 30.954-94.336-94.336zM301.334 448c-104.534 0-189.333-84.779-189.333-189.334 0-40.938 13.162-78.72 35.243-109.718l35.626-37.546c32.448-26.176 73.536-42.091 118.464-42.091 104.576 0 189.334 84.779 189.334 189.334s-84.757 189.354-189.333 189.354zM301.334 112c-80.875 0-146.667 65.792-146.667 146.667s65.792 146.667 146.667 146.667 146.666-65.792 146.666-146.667-65.792-146.667-146.667-146.667z" />
<glyph unicode="&#xe619;" d="M16.918 17.749l30.165-30.166 93.547 93.546-29.376 30.954-94.336-94.336zM301.334 448c-104.555 0-189.333-84.779-189.333-189.334 0-40.938 13.162-78.72 35.243-109.718l35.626-37.546c32.448-26.176 73.514-42.091 118.464-42.091 104.555 0 189.334 84.779 189.334 189.334s-84.779 189.354-189.333 189.354zM301.334 112c-80.875 0-146.667 65.792-146.667 146.667s65.792 146.667 146.667 146.667 146.666-65.792 146.666-146.667-65.792-146.667-146.667-146.667zM320.469 320h-42.666v-42.666h-42.666v-42.667h42.666v-42.667h42.666v42.667h42.666v42.667h-42.666v42.666z" />
<glyph unicode="&#xe61a;" d="M16.918 17.749l30.165-30.166 93.547 93.546-29.376 30.954-94.336-94.336zM301.334 448c-104.555 0-189.333-84.779-189.333-189.334 0-40.938 13.162-78.72 35.243-109.718l35.626-37.546c32.448-26.176 73.514-42.091 118.464-42.091 104.555 0 189.334 84.779 189.334 189.334s-84.779 189.354-189.333 189.354zM301.334 112c-80.875 0-146.667 65.792-146.667 146.667s65.792 146.667 146.667 146.667 146.666-65.792 146.666-146.667-65.792-146.667-146.667-146.667zM234.624 277.291h128v-42.667h-128z" />
<glyph unicode="&#xe61b;" d="M426.666 448h-362.666c-35.285 0-64-28.715-64-64v-256c0-35.286 42.666-42.666 64-42.666v-128l192 128h170.667c35.286 0 64 28.714 64 64v234.667c0 35.286-28.714 64-64 64zM448 149.333c0-11.755-9.579-21.334-21.334-21.334h-192l-128-106.666v106.666h-42.666c-11.755 0-21.334 9.579-21.334 21.334v234.667c0 11.755 9.578 21.334 21.334 21.334h362.666c11.755 0 21.334-9.579 21.334-21.334v-234.667z" />
<glyph unicode="&#xe61c;" d="M256 469.333c-141.376 0-256-114.624-256-256s114.624-256 256-256 256 114.624 256 256-114.624 256-256 256zM256-0c-117.632 0-213.333 95.702-213.333 213.334s95.701 213.334 213.333 213.334 213.333-95.702 213.333-213.334-95.702-213.333-213.333-213.333zM350.87 360.427c-10.538 5.248-23.36 0.981-28.63-9.536l-72.085-144.192-43.094 43.072c-8.341 8.342-21.824 8.342-30.166 0s-8.341-21.824 0-30.166l64-64c4.054-4.053 9.472-6.272 15.104-6.272 1.13 0 2.283 0.086 3.413 0.277 6.762 1.11 12.587 5.397 15.659 11.52l85.334 170.667c5.291 10.538 1.002 23.338-9.536 28.63zM234.709 64.043h42.666v-21.376h-42.666zM234.709 405.333h42.666v-21.376h-42.666zM64 234.709h42.666v-21.376h-42.666zM405.291 234.709h42.666v-21.376h-42.666z" />
<glyph unicode="&#xe61d;" d="M469.334 277.333h-42.666v170.666h-341.334v-170.666h-42.666c-23.466 0-42.666-19.2-42.666-42.667v-213.334c0-23.466 14.4-42.666 32-42.666h53.334v-21.333h341.334v21.333h53.334c17.6 0 32 19.2 32 42.666v213.334c0 23.466-19.2 42.667-42.666 42.667zM85.334-0h-21.334v106.666h21.334v-106.666zM384-0h-256v106.666h42.666v-21.334h170.666v21.334h42.666v-106.666zM384 277.333h-256v128h256v-128zM448-0h-21.334v106.666h21.334v-106.666zM469.334 213.333h-42.666v21.334h42.666v-21.334zM170.667 42.667h170.667v21.334h-170.667v-21.334z" />
<glyph unicode="&#xe61e;" d="M448 306.112v141.888h-106.666v-63.21l-85.718 63.21-255.616-192h64v-277.334h384v277.334l64-0.042-64 50.155zM256 21.333h-85.334v170.667h85.334v-170.667zM405.334 21.333h-128v192h-128v-192h-42.666v256l149.525 106.666 149.142-106.666v-256zM405.334 359.851l-21.334 14.23v31.254h21.334v-45.483zM384 170.667h-85.334v-85.334h85.334v85.334zM362.666 106.667h-42.666v42.666h42.666v-42.666zM234.667 106.667h-21.333v-21.334h21.334v21.334z" />
<glyph unicode="&#xe61f;" d="M405.291 426.709v-8.853c-21.312 6.315-37.738 9.834-57.344 9.834-38.25 0-76.374-11.925-112.256-23.446-34.24-10.966-67.136-21.376-98.667-21.376-23.872 0-43.37 6.23-63.317 19.029l-31.040 21.12v-328.022l7.744-6.293c27.008-17.365 54.827-25.834 87.125-25.834 38.23 0 74.816 11.925 110.678 23.466 34.24 11.008 68.416 21.376 99.99 21.376 20.010 0 35.798-4.672 57.13-13.632v-137.792h42.666v470.421h-42.709zM405.334 140.949c-21.334 6.336-37.781 9.408-57.365 9.408-38.25 0-76.373-11.925-112.256-23.424-34.261-11.008-65.088-21.418-96.619-21.418-20.011 0-32.427 4.373-53.76 13.334v230.784c21.334-6.314 33.664-9.408 53.248-9.408 38.208 0 74.282 11.925 110.166 23.445 34.24 11.008 68.16 21.398 99.712 21.398 19.99-0.022 35.541-4.394 56.875-13.334v-230.784z" />
<glyph unicode="&#xe620;" d="M256 469.333c-141.376 0-256-114.624-256-256s114.624-256 256-256 256 114.624 256 256-114.624 256-256 256zM256-0c-117.632 0-213.333 95.702-213.333 213.334s95.701 213.334 213.333 213.334 213.333-95.702 213.333-213.334-95.702-213.333-213.333-213.333zM151.637 348.395c0 0-0.064-0.064-0.085-0.064 0-0.021 0-0.021 0-0.021-0.042-0.022-0.064-0.064-0.085-0.064-0.022-0.022-0.022-0.022-0.042-0.043-0.042-0.022-0.107-0.085-0.149-0.106-0.022-0.022-0.022-0.022-0.022-0.022-0.042-0.043-0.064-0.043-0.085-0.064l-0.042-0.022c-0.022-0.021-0.042-0.021-0.064-0.064-0.022 0-0.064-0.022-0.085-0.043 0 0-0.022-0.022-0.042-0.043-0.042-0.021-0.064-0.043-0.107-0.085 0 0-0.042-0.022-0.042-0.043-0.042 0-0.064-0.042-0.085-0.042 0 0-0.022-0.043-0.042-0.043l-0.064-0.064c-0.022-0.022-0.022-0.022-0.022-0.022-0.064-0.043-0.107-0.086-0.149-0.106v-0.022c-0.042-0.022-0.085-0.043-0.107-0.085 0 0-0.022 0-0.042 0-0.022-0.043-0.064-0.064-0.085-0.086 0 0-0.022-0.022-0.042-0.043-0.085-0.043-0.149-0.106-0.234-0.149-0.022-0.022-0.022-0.022-0.022-0.022-0.042-0.022-0.085-0.064-0.107-0.107v0c-0.149-0.106-0.278-0.213-0.405-0.298v-0.021c-2.282-1.856-4.544-3.734-6.742-5.696-0.128-0.106-0.256-0.214-0.363-0.32h-0.022c-0.042-0.042-0.064-0.085-0.107-0.128h-0.022c-0.085-0.064-0.149-0.128-0.234-0.214h-0.022c-0.022-0.042-0.064-0.085-0.085-0.107 0-0.021-0.022-0.021-0.022-0.021-0.042-0.043-0.064-0.064-0.107-0.086v-0.022c-0.042 0-0.085-0.042-0.128-0.085 0 0-0.022 0-0.022-0.022l-0.085-0.085c-0.022-0.022-0.022-0.022-0.022-0.022-0.042-0.043-0.085-0.064-0.085-0.064-0.042-0.043-0.042-0.043-0.042-0.043-0.042-0.043-0.085-0.064-0.128-0.106 0 0 0 0-0.022-0.022l-0.085-0.085c-0.022-0.022-0.022-0.022-0.022-0.022-0.042-0.043-0.064-0.064-0.107-0.086 0-0.021-0.022-0.021-0.022-0.021l-0.085-0.107c0 0-0.022-0.022-0.042-0.042s-0.042-0.043-0.085-0.064c0 0-0.042-0.042-0.042-0.064 0 0-0.042-0.021-0.064-0.042s-0.042-0.022-0.064-0.022c0 0-0.022-0.043-0.042-0.064-0.042-0.022-0.064-0.064-0.085-0.064-0.022-0.042-0.042-0.042-0.085-0.085 0 0-0.022-0.043-0.042-0.043l-0.042-0.043c-0.042-0.021-0.064-0.042-0.085-0.064 0-0.022-0.022-0.022-0.022-0.022l-0.234-0.256h-0.022c-0.022-0.042-0.042-0.064-0.085-0.085 0 0 0 0-0.022-0.022s-0.042-0.022-0.042-0.022l14.549-15.616c4.523 4.202 9.387 8.214 14.4 11.84l-12.501 17.28c-1.514-1.067-3.008-2.197-4.501-3.349zM114.24 260.459l-20.246 6.72c-1.28-3.862-2.41-7.744-3.413-11.712-0.043-0.192-0.085-0.363-0.128-0.512h-0.022c0-0.042-0.022-0.085-0.022-0.128l-0.128-0.49c-0.022-0.042-0.022-0.085-0.043-0.128 0 0 0 0 0-0.022-0.043-0.171-0.085-0.32-0.128-0.47v-0.042c0-0.042-0.022-0.085-0.022-0.085v-0.042c-0.043-0.128-0.064-0.256-0.106-0.384 0-0.042-0.022-0.085-0.022-0.128-0.022-0.042-0.022-0.085-0.043-0.128v-0.022c-0.022-0.107-0.064-0.234-0.085-0.363 0 0 0 0 0-0.022-0.022-0.042-0.022-0.064-0.022-0.107 0-0.022 0-0.042-0.022-0.042 0-0.042-0.022-0.085-0.022-0.107v-0.022c-0.022-0.128-0.064-0.234-0.085-0.363 0-0.022 0-0.022 0-0.022-0.022-0.042-0.022-0.085-0.043-0.128-0.043-0.171-0.064-0.341-0.106-0.49v-0.022c-0.022-0.042-0.022-0.064-0.043-0.107v-0.042c-0.043-0.171-0.064-0.341-0.106-0.47v-0.022c0-0.022 0-0.064-0.022-0.107-0.022-0.128-0.043-0.256-0.085-0.384 0-0.042-0.022-0.085-0.022-0.128 0 0 0-0.022 0-0.042-0.022-0.022-0.022-0.064-0.022-0.107l-0.022-0.022c-0.022-0.171-0.064-0.341-0.106-0.49s-0.064-0.341-0.106-0.512c-0.022-0.042-0.022-0.085-0.022-0.128-0.15-0.683-0.299-1.387-0.448-2.070l20.928-4.138c1.237 6.080 2.838 12.16 4.778 18.026zM256 362.667c1.707 0 3.392-0.043 5.077-0.086l0.704 21.334c-1.43 0.042-2.858 0.064-4.33 0.085h-0.022c-0.043 0-0.106 0-0.106 0h-0.426c0 0 0 0-0.022 0h-0.149c-0.022 0-0.022 0-0.022 0h-0.363c0 0-0.022 0-0.043 0h-0.086c0 0-0.022 0-0.043 0h-0.341c0 0-0.022 0-0.042 0h-0.171c0 0-0.064 0-0.107 0 0 0-0.022 0-0.042 0h-0.107c0 0-0.022 0-0.042 0h-0.149c-0.022 0-0.022 0-0.022 0h-1.152c0 0-0.022 0-0.042 0h-0.149c-0.064 0-0.107 0-0.171-0.022h-0.171c0 0-0.022 0-0.042 0h-0.107c-0.022 0-0.042 0-0.042 0h-0.128c-0.022 0-0.022 0-0.022 0-0.128 0-0.234-0.022-0.341-0.022-0.022 0-0.022 0-0.022 0h-0.149c-0.022 0-0.022 0-0.022 0h-0.661c0 0 0 0-0.022 0h-0.149c-0.171 0-0.341-0.022-0.49-0.022-0.064 0-0.128 0-0.171-0.022h-0.853c-4.736-0.171-9.429-0.512-14.080-1.046-0.149-0.043-0.32-0.043-0.47-0.086h-0.171c-0.042 0-0.085-0.021-0.085-0.021-0.042 0-0.064 0-0.085-0.022h-0.107c-0.022 0-0.022 0-0.022 0-0.064 0-0.128-0.021-0.171-0.021-0.022 0-0.042-0.022-0.064-0.022h-0.171l-0.064-0.021h-0.064l2.645-21.163c6.166 0.768 12.438 1.152 18.666 1.152zM93.12 162.24v-0.043c0.022-0.086 0.064-0.192 0.085-0.298 0.022-0.064 0.043-0.106 0.043-0.171h0.022c2.112-6.656 4.608-13.142 7.488-19.413l19.392 8.875c-2.582 5.654-4.822 11.498-6.656 17.408l-20.373-6.358zM419.733 261.675c-1.685 5.76-3.69 11.413-5.974 16.896v0.022c-0.022 0.042-0.022 0.064-0.022 0.064l-0.022 0.064c-0.043 0.107-0.106 0.214-0.149 0.341v0c-0.022 0.022-0.043 0.064-0.043 0.107l-0.022 0.022c-0.022 0.022-0.022 0.064-0.043 0.106 0 0 0 0.022-0.022 0.043-0.022 0.043-0.043 0.086-0.064 0.149 0 0.022-0.022 0.043-0.022 0.064 0 0-0.022 0.043-0.022 0.064-0.022 0.022-0.022 0.064-0.022 0.064-0.022 0.042-0.043 0.042-0.043 0.085-0.022 0.022-0.022 0.042-0.043 0.085l-0.086 0.171c0 0.021 0 0.042 0 0.042-0.022 0.042-0.043 0.085-0.064 0.107 0 0 0 0.021 0 0.064-0.022 0.022-0.043 0.043-0.043 0.086-0.022 0-0.022 0.042-0.022 0.042l-0.064 0.128v-0.022c-0.022 0.042-0.043 0.107-0.064 0.149l-0.022 0.022c0 0.022-0.022 0.064-0.043 0.106 0 0.043 0 0.043 0 0.043-0.043 0.043-0.043 0.086-0.064 0.128l-0.214 0.469c-0.043 0.128-0.086 0.214-0.128 0.32l-19.563-8.555c2.496-5.675 4.651-11.541 6.4-17.494l20.48 6.016zM402.005 181.76c-1.322-6.058-3.029-12.096-5.056-17.942l20.118-7.062c0.448 1.259 0.875 2.538 1.301 3.84l0.555 1.75c1.514 4.885 2.837 9.856 3.947 14.912l-20.864 4.502zM356.459 351.317c0 0 0 0.022 0 0-0.106 0.086-0.192 0.15-0.298 0.235h-0.043c-0.022 0.022-0.043 0.022-0.064 0.043s-0.043 0.022-0.043 0.022c-0.022 0.042-0.064 0.042-0.064 0.042-0.043 0.043-0.086 0.086-0.086 0.086-0.022 0.043-0.043 0.043-0.064 0.043-0.022 0.043-0.043 0.043-0.086 0.064 0 0.022-0.022 0.022-0.043 0.043s-0.064 0.022-0.086 0.064c0 0-0.022 0-0.043 0.022-0.043 0.021-0.086 0.064-0.128 0.085s-0.086 0.064-0.128 0.107h-0.022c-0.043 0.042-0.064 0.064-0.106 0.085l-0.022 0.022c-3.99 2.837-8.064 5.525-12.288 8l-10.858-18.346c5.312-3.158 10.517-6.678 15.424-10.496l13.077 16.874c-1.301 1.002-2.603 1.984-3.947 2.966-0.022 0-0.043 0.022-0.086 0.042zM216.619 293.376c0 0-31.659-126.827-22.336-160.918 9.302-34.112 44.501-54.166 78.613-44.842 34.112 9.301 54.187 44.502 44.864 78.613-9.344 34.091-101.142 127.147-101.142 127.147zM267.243 108.181c-22.698-6.229-46.166 7.168-52.374 29.888s7.125 46.187 29.888 52.416c22.72 6.208 46.187-7.168 52.394-29.909 6.229-22.699-7.147-46.166-29.909-52.394z" />
<glyph unicode="&#xe621;" d="M245.333 170.667c17.6 0 32 19.2 32 42.666v170.667c0 23.466-14.4 42.666-32 42.666s-32-19.2-32-42.666v-170.667c0-23.466 14.4-42.666 32-42.666zM320 369.323v-46.805c50.666-26.858 85.334-79.958 85.334-141.184 0-88.235-71.766-160-160-160s-160 71.765-160 160c0 61.227 34.666 114.326 85.334 141.184v46.805c-74.838-29.781-128-102.656-128-187.99 0-111.744 90.923-202.667 202.667-202.667s202.667 90.923 202.667 202.667c0 85.334-53.163 158.208-128 187.99z" />
<glyph unicode="&#xe622;" d="M245.333 405.333c-111.744 0-202.667-90.923-202.667-202.667s90.923-202.667 202.667-202.667 202.667 90.923 202.667 202.667-90.923 202.667-202.667 202.667zM85.334 202.667c0 88.235 71.765 160 160 160 32.555 0 62.848-9.834 88.149-26.602l-221.547-221.547c-16.768 25.301-26.602 55.594-26.602 88.149zM245.333 42.667c-32.554 0-62.848 9.834-88.15 26.603l221.547 221.547c16.768-25.301 26.603-55.595 26.603-88.15 0-88.234-71.766-160-160-160z" />
<glyph unicode="&#xe623;" d="M42.666 362.667h170.667v-42.666h42.666v42.666c0 23.466-19.2 42.667-42.666 42.667h-170.667c-23.466 0-42.666-19.2-42.666-42.667v-298.666c0-23.466 16.235-42.666 39.68-42.666h24.32v85.334h-21.334v256zM448 277.333h-298.666c-23.466 0-42.666-19.2-42.666-42.667v-170.667c0-23.466 19.2-42.666 42.666-42.666h298.666c23.466 0 42.666 19.2 42.666 42.666v170.667c0 23.466-19.2 42.666-42.666 42.666zM170.667 128h-42.667v42.666h42.666v-42.666zM448 64h-256v170.667h256v-170.667z" />
<glyph unicode="&#xe624;" d="M405.334 448h-298.666c-23.466 0-42.666-19.2-42.666-42.666v-384c0-23.466 19.2-42.666 42.666-42.666h298.666c23.466 0 42.666 19.2 42.666 42.666v384c0 23.466-19.2 42.666-42.666 42.666zM277.334-0h-42.666v42.666h42.666v-42.666zM405.334 64h-298.666v341.334h298.666v-341.334z" />
<glyph unicode="&#xe625;" d="M490.666 64v298.667c0 23.466-19.2 42.666-42.666 42.666h-384c-23.466 0-42.666-19.2-42.666-42.666v-298.667c0-23.466 19.2-42.666 42.666-42.666h384c23.466 0 42.666 19.2 42.666 42.666zM42.666 192v42.667h42.666v-42.667h-42.666zM106.666 64v298.667h341.334v-298.667h-341.334z" />
<glyph unicode="&#xe626;" d="M64 341.333h384v-213.334h42.666v256h-469.334v-256h42.666v213.334zM341.334 106.667c-4.096-8.576-24.426-15.466-42.666-18.901v-2.432h-85.334v2.432c-18.24 3.435-38.571 10.325-42.666 18.901h-170.667v-21.334c0-23.466 64-42.666 64-42.666h384c0 0 64 19.2 64 42.666v21.334h-170.667zM426.666 64h-21.334v21.334h21.334v-21.334z" />
<glyph unicode="&#xe627;" d="M266.646 277.333c-53.013 0-95.978-42.987-95.978-96s42.965-96 95.978-96c52.992 0 95.978 42.986 95.978 96s-42.986 96-95.978 96zM229.482 245.696c10.965 6.379 23.573 10.304 37.184 10.304 38.208 0 69.462-28.97 73.792-66.070-36.906 28.416-80.534 45.952-110.976 55.766zM480 362.667h-103.125l-14.208 42.667h-213.333l-14.208-42.667h-81.792c-23.552 0-53.334-19.115-53.334-42.666v-256c0-23.552 29.782-42.666 53.334-42.666h426.667c23.552 0 32 19.115 32 42.666v256c0 23.552-8.448 42.666-32 42.666zM266.666 42.667c-76.587 0-138.667 62.080-138.667 138.666s62.080 138.667 138.667 138.667 138.666-62.080 138.666-138.667-62.080-138.667-138.667-138.667zM469.334 277.333h-42.666v42.666h42.666v-42.666z" />
<glyph unicode="&#xe628;" d="M448 405.333h-384c-35.285 0-64-28.715-64-64v-234.667c0-35.286 28.715-64 64-64h21.334l21.334-42.666h21.333l21.334 42.666h213.334l21.334-42.666h21.334l21.334 42.666h21.334c35.286 0 64 28.714 64 64v234.667c0 35.286-28.714 64-64 64zM469.334 106.667c0-11.776-9.579-21.334-21.334-21.334h-384c-11.755 0-21.334 9.558-21.334 21.334v234.667c0 11.755 9.578 21.333 21.334 21.333h384c11.755 0 21.334-9.578 21.334-21.333v-234.667zM64 106.667h320v234.667h-320v-234.667zM85.334 320h277.334v-192h-277.334v192zM405.334 320h21.334v-21.334h-21.334zM426.666 298.667h21.334v-21.333h-21.334zM405.334 277.333h21.334v-21.334h-21.334zM426.666 256h21.334v-21.333h-21.334zM405.334 192h42.666v-21.334h-42.666zM405.334 149.333h42.666v-21.334h-42.666z" />
<glyph unicode="&#xe629;" d="M469.334 320h-42.666v12.587c0 23.488-19.115 51.413-42.666 51.413h-341.334c-23.552 0-42.666-27.925-42.666-51.413v-192c0-23.552 19.114-33.92 42.666-33.92h21.334v-51.413c0-23.552 19.115-33.92 42.666-33.92h362.666c23.552 0 42.666 10.368 42.666 33.92v213.334c0 23.488-19.115 51.413-42.666 51.413zM64 149.333h-21.334v85.334h21.334v-85.334zM69.93 298.667h-27.264v42.667h341.334v-21.334h-277.334c-15.701 0-29.334-21.333-36.736-21.333zM106.666 64v213.334h362.666l0.043-213.334h-362.709zM341.334 128h106.666v85.334h-106.666v-85.334zM362.666 192h64v-42.666h-64v42.666zM170.667 85.333h85.333v21.334h-85.334v-21.334zM128 213.333h149.333v42.667h-149.333v-42.667zM277.376 85.333h21.248v21.334h-21.248v-21.334zM128 85.333h21.248v21.334h-21.248v-21.334z" />
<glyph unicode="&#xe62a;" d="M255.978 469.333c-107.243 0-194.197-86.954-194.197-194.219 0-107.286 152.534-317.781 194.219-317.781 30.827 0 194.24 210.496 194.24 317.781-0.022 107.264-86.976 194.219-194.262 194.219zM255.104 179.541c-54.506 0-98.667 44.16-98.667 98.667s44.16 98.666 98.666 98.666 98.666-44.16 98.666-98.666-44.16-98.667-98.666-98.667z" />
<glyph unicode="&#xe62b;" d="M328.918 456.939l-153.621-85.12-175.296 97.514v-390.464l179.925-97.536 145.045 85.504 165.696-91.264v389.781l-161.75 91.584zM448 208.341l-106.666 54.656v133.93l106.666-57.13v-131.456zM192 334.848l106.666 60.949v-133.803l-106.666-60.95v133.803zM192 176.448l106.666 60.971v-133.846l-106.666-60.906v133.781zM149.333 334.848v-133.014l-106.666 64.15v129.834l106.666-60.971zM42.666 241.067l106.666-64.15v-134.25l-106.666 60.906v137.494zM341.334 104v135.019l106.666-54.656v-137.494l-106.666 57.13z" />
<glyph unicode="&#xe62c;" d="M437.034 394.325c-46.336 46.336-110.336 75.008-181.035 75.008-70.656 0-134.656-28.672-180.992-75.008s-75.008-110.336-75.008-180.992c0-70.698 28.672-134.698 75.008-181.034 46.336-46.293 110.336-74.965 180.992-74.965 70.698 0 134.698 28.672 181.035 74.965 46.293 46.336 74.966 110.336 74.966 181.035 0 70.656-28.672 134.656-74.966 180.992zM341.334 213.333c0-23.552-9.579-44.885-25.002-60.331-15.445-15.424-36.779-25.002-60.331-25.002-23.51 0-44.843 9.579-60.288 25.002-15.466 15.445-25.046 36.779-25.046 60.331 0 23.51 9.578 44.843 25.046 60.288s36.779 25.045 60.288 25.045c23.552 0 44.885-9.578 60.331-25.045 15.424-15.446 25.002-36.779 25.002-60.288zM42.666 213.333c0 58.795 23.915 112.128 62.55 150.784l60.288-60.288c-23.168-23.168-37.504-55.168-37.504-90.496s14.336-67.328 37.504-90.496l-60.288-60.288c-38.635 38.613-62.55 91.947-62.55 150.784zM406.784 62.549l-60.288 60.288c23.168 23.168 37.504 55.168 37.504 90.496s-14.336 67.328-37.504 90.496l60.288 60.288c38.635-38.656 62.55-91.989 62.55-150.784 0-58.837-23.914-112.171-62.55-150.784z" />
<glyph unicode="&#xe62d;" d="M170.667 448v-85.334h-149.333v-320h130.923l35.947-85.333h234.666l46.464 42.666v448h-298.666zM64 85.333v176l70.293-176h-70.293zM160 106.667l-85.334 213.334h85.334v-213.334zM426.666 21.333l-25.152-21.334h-188.181v405.334h213.333v-384zM234.667 362.667h106.667v-21.333h-106.666zM234.667 234.667h106.667v-21.334h-106.666zM234.667 192h106.667v-21.334h-106.666zM234.667 149.333h106.667v-21.334h-106.666zM234.667 106.667h106.667v-21.334h-106.666zM234.667 64h106.667v-21.334h-106.666zM362.709 362.688h42.624v-21.376h-42.624zM362.709 320h21.312v-21.376h-21.312zM319.957 320h21.312v-21.376h-21.312zM298.709 320h-64.043v-21.376h64.043zM384.022 234.667h21.248v-21.376h-21.248zM384.022 192.021h21.248v-21.376h-21.248zM384.022 149.333h21.248v-21.376h-21.248zM384.022 106.688h21.248v-21.376h-21.248z" />
<glyph unicode="&#xe62e;" d="M464.363 277.333c-11.733 0-16.363-19.2-16.363-42.667v-42.667c0-23.466 4.63-42.666 16.363-42.666s16.363 19.2 16.363 42.666h31.274v42.667h-31.296c0 23.466-4.63 42.667-16.341 42.667zM384 341.333c-21.334 0-21.334-19.2-21.334-42.667v-64h-213.333v64c0 23.466 0 42.667-21.334 42.667-23.466 0-42.666-19.2-42.666-42.667v-170.666c0-23.466 19.2-42.666 42.666-42.666 21.334 0 21.334 19.2 21.334 42.666v64h213.333v-64c0-23.466 0-42.666 21.334-42.666 23.466 0 42.666 19.2 42.666 42.666v170.667c0 23.466-19.2 42.666-42.666 42.666zM47.638 277.333c11.733 0 16.362-19.2 16.362-42.667v-42.667c0-23.466-4.63-42.666-16.362-42.666s-16.363 19.2-16.363 42.666h-31.274v42.667h31.296c0 23.466 4.63 42.667 16.342 42.667z" />
<glyph unicode="&#xe62f;" d="M277.334 382.933v22.4h10.666c5.888 0 10.666 4.778 10.666 10.666v42.667c0 5.888-4.779 10.666-10.666 10.666h-64c-5.888 0-10.666-4.779-10.666-10.666v-42.667c0-5.888 4.779-10.666 10.666-10.666h10.666v-22.486c-19.221-1.963-37.696-6.486-55.104-13.206l-22.336 21.568-38.976 38.954-75.050-75.050 48.448-48.448c-30.592-36.906-48.981-84.288-48.981-136 0-117.824 95.509-213.333 213.334-213.333s213.333 95.509 213.333 213.333c0 110.635-84.182 201.558-192 212.267zM234.667 448h42.667v-21.334h-42.666v21.334zM73.365 355.115l44.886 44.886 24.896-24.875-44.886-44.885-24.896 24.874zM256-0c-94.101 0-170.667 76.565-170.667 170.666s76.566 170.667 170.667 170.667 170.667-76.565 170.667-170.667-76.565-170.667-170.667-170.667zM239.083 267.541c-8.341 8.341-21.824 8.341-30.166 0s-8.341-21.824 0-30.166l41.898-41.92-56.064-78.336c-5.781-10.262-2.155-23.274 8.128-29.034 3.306-1.877 6.891-2.752 10.432-2.752 7.466 0 14.698 3.925 18.602 10.88l64 92.459c4.714 8.341 3.264 18.774-3.498 25.536l-53.334 53.334z" />
<glyph unicode="&#xe630;" d="M256 277.355c-35.328 0-64-28.672-64-64s28.672-64 64-64 64 28.672 64 64-28.672 64-64 64zM452.928 269.547c-6.933 2.24-13.184 5.803-18.538 10.518-8.618-15.872-19.243-32.15-30.699-48.47-17.813 22.891-38.144 45.994-60.822 68.672-22.507 22.506-45.696 42.923-68.822 60.885 54.976 38.742 107.819 62.059 145.43 62.059 15.274 0 26.966-3.947 34.731-11.712 8.448-8.448 12.182-21.717 11.52-38.528 1.216 0.085 2.346 0.384 3.584 0.384 6.144 0 11.99-1.258 17.472-3.157 1.322 23.915-4.352 43.243-17.493 56.406-11.925 11.925-28.672 17.962-49.813 17.962-43.584 0-102.656-26.005-163.456-69.909-60.8 43.904-119.872 69.93-163.456 69.93-4.522 0-8.768-0.426-12.886-0.982 5.824-5.632 10.219-12.586 13.013-20.373 37.611-0.042 90.41-23.36 145.344-62.080-23.168-18.005-46.379-38.422-68.864-60.928-22.4-22.422-42.816-45.654-60.928-68.992-18.24 25.834-33.28 51.456-44.053 75.798-7.382 16.618-12.309 31.872-15.19 45.654-2.112-0.278-4.16-0.662-6.336-0.662-5.504 0-10.709 1.088-15.701 2.624 2.858-16.981 8.64-35.798 17.728-56.278 12.096-27.328 29.12-56.149 50.026-85.077-20.885-28.885-37.867-57.707-49.984-85.013-25.792-58.176-26.474-103.702-1.941-128.235 11.925-11.925 28.672-17.962 49.813-17.962 64.427 0 162.688 56.661 250.347 144.363 22.464 22.486 42.901 45.781 60.992 69.184 59.094-83.499 76.032-154.667 50.24-180.458-7.765-7.765-19.456-11.712-34.731-11.712-20.118 0-44.694 6.784-71.552 18.923-2.837-6.827-7.040-12.885-12.267-17.962 31.104-14.4 59.818-22.293 83.818-22.293 21.142 0 37.888 6.038 49.813 17.962 37.077 37.077 13.675 122.262-52.245 213.568 13.546 18.794 25.92 37.568 35.904 55.894zM92.608 3.413c-15.275 0-26.965 3.947-34.73 11.712-17.6 17.6-15.296 55.68 6.357 104.49 10.773 24.32 25.792 49.899 43.99 75.733 18.112-23.317 38.506-46.55 60.886-68.906 22.635-22.635 45.952-42.688 69.248-60.714-55.104-38.912-108.096-62.315-145.75-62.315zM327.872 141.525c-23.339-23.339-47.616-44.416-71.766-62.762-24.214 18.389-48.512 39.402-71.915 62.762-23.339 23.339-44.352 47.552-62.784 71.765 18.432 24.256 39.51 48.491 62.848 71.851 23.317 23.338 47.616 44.416 71.786 62.805 24.149-18.368 48.426-39.445 71.744-62.762 24.235-24.235 45.099-48.32 62.976-71.68-18.432-24.32-39.488-48.576-62.89-71.978zM469.334 341.355c-11.798 0-21.334-9.536-21.334-21.333s9.536-21.334 21.334-21.334 21.334 9.536 21.334 21.334-9.536 21.333-21.334 21.333zM298.666 64.021c-11.798 0-21.334-9.536-21.334-21.334s9.536-21.334 21.334-21.334 21.334 9.536 21.334 21.334-9.536 21.334-21.334 21.334zM42.666 384.021c11.797 0 21.334 9.536 21.334 21.333s-9.536 21.334-21.334 21.334-21.334-9.536-21.334-21.334 9.536-21.333 21.334-21.333z" />
<glyph unicode="&#xe631;" d="M0 405.333v-384h512v384h-512zM469.334 64h-426.666v298.667h426.666v-298.667zM309.334 203.861c23.531 0 42.666 19.115 42.666 42.667s-19.136 42.667-42.666 42.667-42.666-19.115-42.666-42.667 19.136-42.667 42.666-42.667zM288 267.861h42.666v-42.667h-42.666v42.666zM448 341.333h-384v-256h384v256zM85.334 192.747l129.046-36.864-129.046-22.784v59.648zM426.666 106.667h-341.334v4.8l341.334 60.224v-65.024zM426.666 193.024l-170.667-31.829-170.667 52.886v105.92h341.334v-126.976z" />
<glyph unicode="&#xe632;" d="M258.368 458.667l-237.035-116.309v-235.392l234.667-138.965 234.667 138.965v235.392l-232.298 116.31zM234.667 30.208l-170.667 101.077v142.4l170.667-84.331v-159.147zM73.898 317.739l184.832 93.141 184.832-93.141-184.832-91.328-184.832 91.328zM448 131.285l-192-113.707v164.736l192 91.371v-142.4z" />
<glyph unicode="&#xe633;" d="M490.666-0v21.334h-21.334v-21.334h-21.334v213.334h-106.666v-213.333h-21.334v426.666h-106.666v-426.666h-21.334v256h-21.334v21.333h-21.334v-21.333h-42.666v21.333h-21.334v-277.334h-42.666v469.334h-42.666v-512h512v42.666h-21.334zM149.333-0h-21.334v213.334h21.334v-213.333zM277.334-0h-21.334v384h21.334v-384zM405.334-0h-21.334v170.666h21.334v-170.667zM85.334 469.333h21.334v-21.333h-21.334zM149.333 469.333h21.333v-21.333h-21.334zM213.333 469.333h21.333v-21.333h-21.334zM277.334 469.333h21.334v-21.333h-21.334zM341.334 469.333h21.334v-21.333h-21.334zM405.334 469.333h21.334v-21.333h-21.334zM469.334 469.333h21.334v-21.333h-21.334zM469.334 405.333h21.334v-21.334h-21.334zM405.334 405.333h21.334v-21.334h-21.334zM341.334 405.333h21.334v-21.334h-21.334zM341.334 341.333h21.334v-21.334h-21.334zM405.334 341.333h21.334v-21.334h-21.334zM469.334 341.333h21.334v-21.334h-21.334zM469.334 277.291h21.334v-21.333h-21.334zM405.334 277.333h21.334v-21.334h-21.334zM341.334 277.333h21.334v-21.334h-21.334zM469.334 213.333h21.334v-21.334h-21.334zM469.334 149.333h21.334v-21.334h-21.334zM469.334 85.333h21.334v-21.334h-21.334zM149.333 405.333h21.333v-21.334h-21.334zM149.333 341.333h21.333v-21.334h-21.334zM85.334 341.333h21.334v-21.334h-21.334zM85.334 405.333h21.334v-21.334h-21.334z" />
<glyph unicode="&#xe634;" d="M83.541 391.531c-48.832-35.115-80.79-92.267-80.79-156.864 0-23.616 4.458-46.144 12.245-67.094l181.035 67.094-112.49 156.864zM33.45 240.043c-0.768 40.022 14.443 78.549 42.048 107.243l89.536-99.392-126.954-42.347c-2.858 11.221-4.416 22.784-4.63 34.496zM283.99 437.333c-53.93 0-106.026-19.434-146.731-54.741l0.534-0.598-8.512-7.445 135.978-155.968-197.845-62.848 2.901-9.11-0.213-0.064c0.597-1.984 1.386-3.861 2.070-5.781l1.707-5.397 0.192 0.064c32.448-87.829 115.285-146.134 209.92-146.134 123.52 0 224 100.501 224 224s-100.48 224.022-224 224.022zM450.219 285.568l-134.998-49.429 88.128 113.386c19.947-17.536 36.118-39.274 46.87-63.957zM173.162 356.672c31.68 24.47 70.571 37.995 110.826 37.995 38.058 0 73.365-11.84 102.57-31.957l-103.040-132.587-110.358 126.549zM115.157 148.501l155.2 49.322-28.65-160.32c-57.536 13.654-104.917 54.464-126.549 110.998zM283.99 32c-7.232 0-14.229 0.875-21.269 1.707l30.678 171.712 164.182 60.118c4.971-16.555 7.723-34.070 7.723-52.203 0.022-100.010-81.344-181.333-181.312-181.333z" />
<glyph unicode="&#xe635;" d="M275.413 456.448l-187.712-335.040 0.96-0.49 9.493-150.699 137.536 68.31 0.875-0.49 187.712 335.019-148.864 83.392zM129.173 23.467l-1.302 75.499 68.246-38.25-66.944-37.248zM220.202 96.085l-74.411 41.707 114.709 204.736 74.454-41.685-114.752-204.758zM270.912 361.152l20.885 37.226 74.411-41.707-20.842-37.205-74.454 41.685z" />
<glyph unicode="&#xe636;" d="M64 170.667h21.334v21.334h-21.334v-21.334zM85.334 384h-21.334v-21.333h21.334v21.333zM85.334-0h-21.334v-21.334h-42.666v-21.333h106.666v21.333h-42.666v21.334zM64 298.667h21.334v21.333h-21.334v-21.333zM64 234.667h21.334v21.333h-21.334v-21.333zM192 469.333v-512h277.334v512h-277.334zM362.666-0h-128v426.666h128v-426.666zM426.666-0h-42.666v42.666h42.666v-42.666zM426.666 64h-42.666v42.666h42.666v-42.666zM426.666 128h-42.666v42.666h42.666v-42.666zM426.666 192h-42.666v42.667h42.666v-42.667zM426.666 256h-42.666v42.666h42.666v-42.666zM426.666 320h-42.666v42.666h42.666v-42.666zM426.666 384h-42.666v42.667h42.666v-42.667zM21.334 448h42.666v-21.334h21.334v21.334h42.666v21.333h-106.666v-21.333zM64 42.667h21.334v21.334h-21.334v-21.334zM64 106.667h21.334v21.334h-21.334v-21.334z" />
<glyph unicode="&#xe637;" d="M320 374.528v42.667c0 23.552-31.829 52.138-55.424 52.138h-17.11c-23.573 0-55.424-28.587-55.424-52.138v-42.667c-21.333 0-42.667-19.2-42.667-42.666v-21.334c0-15.659 0-29.29 21.334-36.714v-231.147h21.334v-85.333h127.957v85.333h21.334v231.147c21.334 7.424 21.334 21.034 21.334 36.714v21.334c0 23.445-21.334 42.666-42.666 42.666zM277.334-0h-42.624v64h42.624v-64zM298.666 85.333h-85.291v128h85.291v-128zM298.666 234.667h-85.291v42.667h85.291v-42.667z" />
<glyph unicode="&#xe638;" d="M149.333 320v-42.666h128v42.666h-128zM149.333 234.667h192v21.333h-192v-21.333zM341.334 213.333h-64v-21.334h64v21.334zM277.334 149.333h64v21.334h-64v-21.334zM64 426.667v-213.334h42.666v170.667h277.334v-362.667h-106.666v-42.666h149.334v448h-362.666zM207.083 96c0 5.12-0.768 10.026-1.877 14.784l29.611 19.861-19.008 32.555-29.952-20.010c-5.525 4.864-11.882 8.576-18.858 10.986v37.824h-35.819v-37.995c-6.805-2.411-12.971-6.101-18.389-10.88l-29.867 20.075-18.986-32.555 29.61-19.84c-1.109-4.757-1.877-9.685-1.877-14.805 0-5.142 0.768-10.070 1.877-14.827l-29.547-19.819 19.008-32.555 29.782 20.075c5.397-4.779 11.584-8.448 18.389-10.88v-37.995h35.819v37.803c6.976 2.389 13.334 6.101 18.858 10.966l29.867-19.99 19.050 32.555-29.568 19.84c1.088 4.779 1.877 9.685 1.877 14.827zM149.376 57.579c-19.755 0-35.819 17.216-35.819 38.421s16.064 38.4 35.819 38.4c19.797 0 35.819-17.195 35.819-38.4s-16.022-38.421-35.819-38.421z" />
<glyph unicode="&#xe639;" d="M170.667 320v-42.666h128v42.666h-128zM170.667 234.667h192v21.333h-192v-21.333zM362.666 213.333h-170.667v-21.334h170.667v21.334zM362.666 149.333v21.334h-149.333v-21.334h149.333zM170.667 170.667h-64v-64h-64v-64h64v-64h64v64h64v64h-64v64zM85.334 426.667v-213.334h42.666v170.667h277.334v-362.667h-141.718l-21.334-42.666h205.718v448h-362.666z" />
<glyph unicode="&#xe63a;" d="M149.333 320h128v-42.666h-128zM149.333 256h192v-21.333h-192zM149.333 213.333h192v-21.334h-192zM149.333 170.667h192v-21.334h-192zM149.333 128h64v-21.334h-64zM350.507 426.667h-286.507v-448h362.666v372.587l-76.16 75.413zM384 333.589v-13.589h-64v64h12.842l51.158-50.411zM106.666 21.333v362.666h192v-85.333h85.334v-277.334h-277.334z" />
<glyph unicode="&#xe63b;" d="M64 426.667v-448h362.666v448h-362.666zM384 21.333h-277.334v362.666h277.334v-362.666zM277.334 320h-128v-42.666h128v42.666zM341.334 256h-192v-21.333h192v21.334zM341.334 213.333h-192v-21.334h192v21.334zM341.334 170.667h-192v-21.334h192v21.334zM213.333 128h-64v-21.334h64v21.334z" />
<glyph unicode="&#xe63c;" d="M64 426.667v-448h362.666v448h-362.666zM384 21.333h-277.334v362.666h277.334v-362.666zM341.334 320h-128v-42.666h128v42.666zM341.334 256h-192v-21.333h192v21.334zM341.334 213.333h-192v-21.334h192v21.334zM341.334 170.667h-192v-21.334h192v21.334zM277.334 106.667h64v21.334h-64v-21.334z" />
<glyph unicode="&#xe63d;" d="M64 426.667v-448h362.666v448h-362.666zM384 21.333h-277.334v362.666h277.334v-362.666zM298.666 320h-128v-42.666h128v42.666zM341.334 256h-192v-21.333h192v21.334zM341.334 213.333h-192v-21.334h192v21.334zM341.334 170.667h-192v-21.334h192v21.334zM213.333 106.667h64v21.334h-64v-21.334z" />
<glyph unicode="&#xe63e;" d="M64 426.667v-448h362.666v448h-362.666zM384 21.333h-277.334v362.666h277.334v-362.666zM341.334 320h-192v-42.666h192v42.666zM341.334 256h-192v-21.333h192v21.334zM341.334 213.333h-192v-21.334h192v21.334zM341.334 170.667h-192v-21.334h192v21.334zM341.334 128h-192v-21.334h192v21.334z" />
<glyph unicode="&#xe63f;" d="M64 426.667v-448h362.666v448h-362.666zM384 21.333h-277.334v362.666h277.334v-362.666zM192.534 130.368l52.8 52.8 52.8-52.8 30.166 30.166-52.8 52.8 52.8 52.8-30.166 30.166-52.8-52.8-52.8 52.8-30.166-30.166 52.8-52.8-52.8-52.8 30.166-30.166z" />
<glyph unicode="&#xe640;" d="M0 448v-469.334h512v469.334h-512zM469.334 21.333h-426.666v277.334h426.666v-277.334zM469.334 320h-426.666v85.334h426.666v-85.334zM234.667 384h-42.667v-42.666h42.666v42.666zM170.667 384h-42.667v-42.666h42.666v42.666zM106.666 384h-42.666v-42.666h42.666v42.666z" />
<glyph unicode="&#xe641;" d="M64 448v-64h-64v-405.334h448v64h64v405.334h-448zM405.334 21.333h-362.666v320h21.334v-298.667h341.334v-21.334zM469.334 85.333h-362.666v213.334h362.666v-213.334zM469.334 320h-362.666v85.334h362.666v-85.334zM298.666 384h-42.666v-42.666h42.666v42.666zM234.667 384h-42.667v-42.666h42.666v42.666zM170.667 384h-42.667v-42.666h42.666v42.666z" />
<glyph unicode="&#xe642;" d="M0 448v-469.334h512v469.334h-512zM469.334 21.333h-426.666v277.334h426.666v-277.334zM469.334 320h-426.666v85.334h426.666v-85.334zM234.667 384h-42.667v-42.666h42.666v42.666zM170.667 384h-42.667v-42.666h42.666v42.666zM106.666 384h-42.666v-42.666h42.666v42.666zM192.534 87.701l52.8 52.8 52.8-52.8 30.166 30.166-52.8 52.8 52.8 52.8-30.166 30.166-52.8-52.8-52.8 52.8-30.166-30.166 52.8-52.8-52.8-52.8 30.166-30.166z" />
<glyph unicode="&#xe643;" d="M298.666 384v21.334c0 23.552-19.115 42.666-42.666 42.666h-85.334c-23.552 0-42.666-19.115-42.666-42.666v-21.334h-85.334v-64h-21.334v-341.334h469.334v405.334h-192zM448 21.333h-384v256h384v-256zM448 320h-362.666v21.334h85.334v64h85.334v-64h192v-21.334z" />
<glyph unicode="&#xe644;" d="M298.666 426.667v-85.333h-85.334v-85.334h-85.334v-85.334h-85.334v-170.667h405.334v426.666h-149.333zM234.667 42.667h-64v170.667h64v-170.667zM320 42.667h-64v256h64v-256zM405.334 42.667h-64v341.334h64v-341.334z" />
<glyph unicode="&#xe645;" d="M298.666 426.667v-85.333h-85.334v-85.334h-85.334v-85.334h-85.334v-170.667h405.334v426.666h-149.333zM320 42.667h-64v256h64v-256zM405.334 42.667h-64v341.334h64v-341.334z" />
<glyph unicode="&#xe646;" d="M298.666 426.667v-85.333h-85.334v-85.334h-85.334v-85.334h-85.334v-170.667h405.334v426.666h-149.333zM405.334 42.667h-64v341.334h64v-341.334z" />
<glyph unicode="&#xe647;" d="M298.666 426.667v-85.333h-85.334v-85.334h-85.334v-85.334h-85.334v-170.667h405.334v426.666h-149.333z" />
<glyph unicode="&#xe648;" d="M192.085 405.333v-405.334h255.766v170.666h63.914v234.667h-319.68zM405.205 42.667h-170.496v64h170.496v-64zM405.205 128h-170.496v64h170.496v-64zM469.142 213.333h-234.432v64h234.432v-64zM469.142 298.667h-234.432v64h234.432v-64zM0.234-0h149.226v405.334h-149.226v-405.334zM42.858 362.667h63.958v-64h-63.958v64zM42.858 277.333h63.958v-64h-63.958v64zM42.858 192h63.958v-64h-63.958v64zM42.858 106.667h63.958v-64h-63.958v64z" />
<glyph unicode="&#xe649;" d="M21.334 426.667v-448h447.574v448h-447.574zM426.283 277.333h-106.582v106.666h106.582v-106.666zM426.283 149.333h-106.582v106.667h106.582v-106.667zM426.283 21.333h-106.582v106.666h106.582v-106.666zM63.958 128h106.582v-106.666h-106.582v106.666zM63.958 256h106.582v-106.667h-106.582v106.667zM63.958 384h106.582v-106.666h-106.582v106.666zM298.411 277.333h-106.56v106.666h106.582v-106.666zM298.411 149.333h-106.56v106.667h106.582v-106.667zM191.851 128h106.582v-106.666h-106.582v106.666z" />
<glyph unicode="&#xe64a;" d="M447.829 335.381v48.618h-383.659v-48.618l-63.936-21.334v-201.408l63.936-21.334v-48.64h383.659v48.618l63.936 21.334v201.43l-63.936 21.334zM64.171 136.277l-21.312 7.104v139.904l21.312 7.104v-154.112zM405.205 85.333h-298.411v256h298.411v-256zM469.142 143.381l-21.312-7.104v154.112l21.312-7.104v-139.904zM383.894 320h-255.786v-213.334h255.786v213.334zM362.582 128h-213.162v170.667h213.162v-170.667z" />
<glyph unicode="&#xe64b;" d="M443.99 298.667c-8.789 24.832-32.49 42.667-60.288 42.667h-319.744c-35.264 0-63.958-28.715-63.958-64v-149.334c0-35.286 28.694-64 63.958-64h319.723c27.798 0 51.498 17.834 60.288 42.666h46.272v192h-46.25zM404.971 128c0-11.755-9.536-21.334-21.291-21.334h-319.723c-11.776 0-21.334 9.579-21.334 21.334v149.334c0 11.755 9.557 21.334 21.334 21.334h319.723c11.755 0 21.291-9.579 21.291-21.334v-149.334zM447.616 149.333h-21.312v106.667h21.312v-106.667zM215.403 149.333l21.291 42.666h106.581l-127.872 64-21.334-42.667h-106.582l127.915-64z" />
<glyph unicode="&#xe64c;" d="M444.16 298.667c-8.789 24.832-32.49 42.667-60.288 42.667h-319.723c-35.264 0-63.936-28.715-63.936-64v-149.334c0-35.286 28.672-64 63.936-64h319.723c27.798 0 51.498 17.834 60.288 42.666h46.293v192h-46.293zM405.205 128c0-11.755-9.579-21.334-21.334-21.334h-319.723c-11.776 0-21.312 9.579-21.312 21.334v149.334c0 11.755 9.536 21.334 21.312 21.334h319.723c11.755 0 21.334-9.579 21.334-21.334v-149.334zM447.829 149.333h-21.334v106.667h21.334v-106.667z" />
<glyph unicode="&#xe64d;" d="M444.16 298.667c-8.789 24.832-32.49 42.667-60.288 42.667h-319.723c-35.264 0-63.936-28.715-63.936-64v-149.334c0-35.286 28.672-64 63.936-64h319.723c27.798 0 51.498 17.834 60.288 42.666h46.293v192h-46.293zM405.205 128c0-11.755-9.579-21.334-21.334-21.334h-319.723c-11.776 0-21.312 9.579-21.312 21.334v149.334c0 11.755 9.536 21.334 21.312 21.334h319.723c11.755 0 21.334-9.579 21.334-21.334v-149.334zM447.829 149.333h-21.334v106.667h21.334v-106.667zM64.15 234.667v-64c0-23.466 14.379-42.666 31.978-42.666h31.957v149.334h-31.957c-17.6 0-31.978-19.2-31.978-42.667z" />
<glyph unicode="&#xe64e;" d="M444.16 298.667c-8.789 24.832-32.49 42.667-60.288 42.667h-319.723c-35.264 0-63.936-28.715-63.936-64v-149.334c0-35.286 28.672-64 63.936-64h319.723c27.798 0 51.498 17.834 60.288 42.666h46.293v192h-46.293zM405.205 128c0-11.755-9.579-21.334-21.334-21.334h-319.723c-11.776 0-21.312 9.579-21.312 21.334v149.334c0 11.755 9.536 21.334 21.312 21.334h319.723c11.755 0 21.334-9.579 21.334-21.334v-149.334zM447.829 149.333h-21.334v106.667h21.334v-106.667zM149.398 277.333h63.958v-149.334h-63.958zM64.15 234.667v-64c0-23.466 14.379-42.666 31.978-42.666h31.957v149.334h-31.957c-17.6 0-31.978-19.2-31.978-42.667z" />
<glyph unicode="&#xe64f;" d="M444.16 298.667c-8.789 24.832-32.49 42.667-60.288 42.667h-319.723c-35.264 0-63.936-28.715-63.936-64v-149.334c0-35.286 28.672-64 63.936-64h319.723c27.798 0 51.498 17.834 60.288 42.666h46.293v192h-46.293zM405.205 128c0-11.755-9.579-21.334-21.334-21.334h-319.723c-11.776 0-21.312 9.579-21.312 21.334v149.334c0 11.755 9.536 21.334 21.312 21.334h319.723c11.755 0 21.334-9.579 21.334-21.334v-149.334zM447.829 149.333h-21.334v106.667h21.334v-106.667zM149.398 277.333h63.958v-149.334h-63.958zM234.667 277.333h63.958v-149.334h-63.958zM64.15 234.667v-64c0-23.466 14.379-42.666 31.978-42.666h31.957v149.334h-31.957c-17.6 0-31.978-19.2-31.978-42.667z" />
<glyph unicode="&#xe650;" d="M117.013 228.587c9.536 57.024 68.48 119.21 138.219 119.21 40.342 0 76.374-18.517 101.59-47.061l33.92 22.613c-33.13 39.36-82.282 64.875-137.002 64.875-90.666 0-165.632-62.998-177.002-151.83l-76.736 14.827 75.541-111.723 111.744 75.499-70.272 13.589zM436.459 287.168l-111.744-75.498 70.25-13.589c-9.514-57.024-68.48-119.232-138.219-119.21-40.363 0-76.374 18.517-101.611 47.062l-33.898-22.613c33.13-39.36 82.283-64.875 137.002-64.875 90.645 0 165.632 62.998 176.981 151.829l76.779-14.827-75.541 111.723z" />
<glyph unicode="&#xe651;" d="M272.384 448l-85.334-106.666h-85.334c-35.306 0-59.050-34.048-59.050-69.334v-122.666c0-35.286 23.744-64 59.050-64h85.334l85.334-106.666c21.334 0 47.616 0 47.616 0v469.334c-21.334 0-26.283 0-47.616 0zM170.667 128h-68.95c-11.797 0-16.384 9.579-16.384 21.334v122.666c0 11.755 4.587 26.667 16.384 26.667h68.95v-170.667zM277.334 42.667l-85.334 85.334v170.667l85.334 85.334v-341.334zM362.666 320v-44.438c42.666-8.853 42.666-32.32 42.666-60.054 0-27.798 0-51.243-42.666-60.075v-44.438c64 9.92 85.334 52.992 85.334 104.512 0 51.499-21.334 94.571-85.334 104.49z" />
<glyph unicode="&#xe652;" d="M251.050 448l-85.334-106.666h-85.334c-35.306 0-59.050-34.048-59.050-69.334v-122.666c0-35.286 23.744-64 59.050-64h85.334l85.334-106.666c21.334 0 47.616 0 47.616 0v469.334c-21.334 0-26.282 0-47.616 0zM149.333 128h-68.95c-11.797 0-16.384 9.579-16.384 21.334v122.666c0 11.755 4.587 26.667 16.384 26.667h68.95v-170.667zM256 42.667l-85.334 85.334v170.667l85.334 85.334v-341.334zM490.666 234.667h-42.666v42.667h-42.666v-42.667h-42.666v-42.667h42.666v-42.666h42.666v42.666h42.666z" />
<glyph unicode="&#xe653;" d="M251.050 448l-85.334-106.666h-85.334c-35.306 0-59.050-34.048-59.050-69.334v-122.666c0-35.286 23.744-64 59.050-64h85.334l85.334-106.666c21.334 0 47.616 0 47.616 0v469.334c-21.334 0-26.282 0-47.616 0zM149.333 128h-68.95c-11.797 0-16.384 9.579-16.384 21.334v122.666c0 11.755 4.587 26.667 16.384 26.667h68.95v-170.667zM256 42.667l-85.334 85.334v170.667l85.334 85.334v-341.334zM362.666 234.667h128v-42.667h-128z" />
<glyph unicode="&#xe654;" d="M298.666 186.837v-144.171l-72.085 72.085-29.418-29.418h11.2l85.333-106.666c21.334 0 47.616 0 47.616 0v250.838l-42.646-42.667zM107.029 146.027c-0.085 1.11-0.362 2.134-0.362 3.307v122.666c0 11.755 4.587 26.667 16.384 26.667h68.949v-67.67l21.334 21.333v46.336l85.334 85.333v-46.336l42.666 42.667v67.669c-21.334 0-26.282 0-47.616 0l-85.334-106.666h-85.334c-35.306 0-59.050-34.048-59.050-69.334v-122.666c0-13.568 3.563-26.091 9.877-36.459l33.152 33.152zM72.832 6.251l-30.166 30.166 394.666 394.666 30.166-30.166-394.666-394.666z" />
<glyph unicode="&#xe655;" d="M298.666 448h-106.666c-35.328 0-64-28.651-64-64v-192c0-35.349 28.672-64 64-64h106.666c35.328 0 64 28.651 64 64v192c0 35.35-28.672 64-64 64zM320 341.333v-21.334h-42.666v-21.333h42.666v-21.334h-42.666v-21.333h42.666v-21.334h-42.666v-21.334h42.666v-21.334c0-11.755 1.536-21.334-10.219-21.334h-128.896c-11.755 0-10.219 9.579-10.219 21.334v21.334h42.667v21.334h-42.666v21.334h42.666v21.333h-42.666v21.334h42.666v21.333h-42.666v21.334h42.666v21.333h-42.666v21.334c0 11.755-1.536 21.334 10.219 21.334h128.875c11.776 0 10.24-9.579 10.24-21.334v-21.334h-42.666v-21.333h42.666zM405.334 213.333v42.667h-21.334v-106.667c0-23.914-15.552-42.666-49.6-42.666h-178.133c-34.048 0-49.6 18.752-49.6 42.666v106.667h-21.334v-42.667h-21.334v-42.666h21.334v-21.334c0-47.851 12.971-64 70.933-64h35.733v-64h-42.667v-42.666h192v42.666h-42.666v64h35.733c57.962 0 70.933 16.149 70.933 64v21.334h21.334v42.666h-21.334z" />
<glyph unicode="&#xe656;" d="M85.334 154.496l21.334 21.334v80.171h-21.334v-42.667h-21.334v-42.666h21.334v-16.171zM405.334 213.333v42.667h-21.334v-106.667c0-23.914-41.472-42.666-75.52-42.666h-104.79l-42.667-21.334h30.976v-64h-42.666v-42.666h192v42.666h-42.666v64h9.813c57.962 0 96.853 16.149 96.853 64v21.334h21.334v42.666h-21.334zM277.334 341.333v21.333h-21.334v-21.333h21.334zM170.667 256h42.667v21.334h-42.666v21.333h42.666v21.334h-42.666v21.333h42.666v21.334h-42.666v21.334c0 11.755-5.248 21.333 6.528 21.333h106.667c10.24 0 18.411-7.402 20.459-17.045l32.086 32.085c-11.563 16.661-30.784 27.627-52.544 27.627h-106.666c-35.306 0-49.195-28.715-49.195-64v-186.838l42.666 42.667v16.171zM283.861 170.667h-37.504l-42.667-42.666h80.171c35.286 0 78.805 28.714 78.805 64v80.171l-42.666-42.666v-37.504c0-11.755-24.384-21.334-36.139-21.334zM374.528 396.885l-298.666-298.666 21.334-42.666 298.666 298.666-21.334 42.667z" />
<glyph unicode="&#xe657;" d="M189.718 449.323l-91.968-67.84-12.416 2.517v-362.666l277.334-64v362.666l-209.024 48.939 45.226 35.072 206.464-41.344v-170.667h21.334v209.792l-236.95 47.531z" />
<glyph unicode="&#xe658;" d="M191.573-21.333l-121.814 213.205 74.091 42.326 48.832-85.418 176.022 299.221 73.536-43.243-250.667-426.091z" />
<glyph unicode="&#xe659;" d="M85.334 341.333l205.909-0.298 25.13 42.666-273.707 0.299v-213.334l42.666 42.666v128zM85.334 42.667c-0.832 1.45 0.49 51.264 0.49 64.128-22.592 33.408-43.157 63.872-43.157 63.872v-170.666l122.41-0.298c0 0-12.459 18.454-28.63 42.368-16.683 0.022-42.624 0.598-51.114 0.598zM405.334 42.667l-126.742-0.298-25.131-42.666 194.539 0.298v298.666l-42.666-42.666v-213.334zM384.298 437.333l-176-299.2-48.832 85.418-74.091-42.325 121.835-213.226 250.624 426.091-73.536 43.242z" />
<glyph unicode="&#xe65a;" d="M42.666 384v-384h405.334v384h-405.334zM405.334 42.667h-320v298.667h320v-298.667zM362.624 213.333h-234.624v-64h234.624v64z" />
<glyph unicode="&#xe65b;" d="M451.606 368.917l-60.331 60.331c-41.6 41.578-109.269 41.578-150.848 0l-211.2-211.179 30.166-30.166 211.2 211.179c24.96 24.96 65.558 24.96 90.496 0l60.352-60.352c24.96-24.938 24.96-65.536 0-90.496l-211.179-211.179c-27.2-27.2-57.451-33.046-65.558-24.96l-9.877 9.856-48.085 48.086c-3.755 3.755-0.683 23.872 10.368 34.923l211.136 211.136c2.474 2.454 22.656-7.552 37.717-22.635v0c-6.592-6.592-5.056-5.077-7.531-7.552l-153.216-153.195 30.166-30.166 153.216 153.195c18.24 18.219 40.918 34.518 7.552 67.883v0c-33.344 33.365-66.923 53.76-98.048 22.635l-211.2-211.136c-24.918-24.96-34.624-70.954-10.325-95.254l32.96-33.002 25.002-24.96c28.288-28.288 83.584-17.322 125.867 24.96l211.179 211.179c41.6 41.6 41.6 109.269 0.022 150.869z" />
<glyph unicode="&#xe65c;" d="M138.667 277.333c17.664 0 32-14.315 32-32s-14.336-32-32-32-32 14.315-32 32 14.336 32 32 32zM426.666 448h-362.666c-35.285 0-64-28.715-64-64v-256c0-35.286 42.666-42.666 64-42.666v-128l192 128h170.667c35.286 0 64 28.714 64 64v234.667c0 35.286-28.714 64-64 64zM448 149.333c0-11.755-9.579-21.334-21.334-21.334h-192l-128-106.666v106.666h-42.666c-11.755 0-21.334 9.579-21.334 21.334v234.667c0 11.755 9.578 21.334 21.334 21.334h362.666c11.755 0 21.334-9.579 21.334-21.334v-234.667z" />
<glyph unicode="&#xe65d;" d="M138.667 277.333c17.664 0 32-14.315 32-32s-14.336-32-32-32-32 14.315-32 32 14.336 32 32 32zM245.333 277.333c17.664 0 32-14.315 32-32s-14.336-32-32-32-32 14.315-32 32 14.336 32 32 32zM426.666 448h-362.666c-35.285 0-64-28.715-64-64v-256c0-35.286 42.666-42.666 64-42.666v-128l192 128h170.667c35.286 0 64 28.714 64 64v234.667c0 35.286-28.714 64-64 64zM448 149.333c0-11.755-9.579-21.334-21.334-21.334h-192l-128-106.666v106.666h-42.666c-11.755 0-21.334 9.579-21.334 21.334v234.667c0 11.755 9.578 21.334 21.334 21.334h362.666c11.755 0 21.334-9.579 21.334-21.334v-234.667z" />
<glyph unicode="&#xe65e;" d="M138.667 277.333c17.664 0 32-14.315 32-32s-14.336-32-32-32-32 14.315-32 32 14.336 32 32 32zM245.333 277.333c17.664 0 32-14.315 32-32s-14.336-32-32-32-32 14.315-32 32 14.336 32 32 32zM352 277.333c17.664 0 32-14.315 32-32s-14.336-32-32-32-32 14.315-32 32 14.336 32 32 32zM426.666 448h-362.666c-35.285 0-64-28.715-64-64v-256c0-35.286 42.666-42.666 64-42.666v-128l192 128h170.667c35.286 0 64 28.714 64 64v234.667c0 35.286-28.714 64-64 64zM448 149.333c0-11.755-9.579-21.334-21.334-21.334h-192l-128-106.666v106.666h-42.666c-11.755 0-21.334 9.579-21.334 21.334v234.667c0 11.755 9.578 21.334 21.334 21.334h362.666c11.755 0 21.334-9.579 21.334-21.334v-234.667z" />
<glyph unicode="&#xe65f;" d="M426.666 448h-362.666c-35.285 0-64-28.715-64-64v-256c0-35.286 42.666-42.666 64-42.666v-128l192 128h170.667c35.286 0 64 28.714 64 64v234.667c0 35.286-28.714 64-64 64zM448 149.333c0-11.755-9.579-21.334-21.334-21.334h-192l-128-106.666v106.666h-42.666c-11.755 0-21.334 9.579-21.334 21.334v234.667c0 11.755 9.578 21.334 21.334 21.334h362.666c11.755 0 21.334-9.579 21.334-21.334v-234.667zM85.334 341.333h256v-42.667h-256zM85.334 277.333h320v-21.334h-320zM85.334 234.667h320v-21.334h-320zM85.334 192h170.666v-21.334h-170.667z" />
<glyph unicode="&#xe660;" d="M426.666 384v85.334h-128v-85.334h-85.334v85.334h-128v-85.334h-85.334v-405.334h512v405.334h-85.334zM341.334 426.667h42.666v-85.333h-42.666v85.333zM128 426.667h42.666v-85.333h-42.666v85.333zM469.334 21.333h-426.666v234.667h426.666v-234.667zM469.334 277.333h-426.666v64h42.666v-42.667h128v42.667h85.334v-42.667h128v42.667h42.666v-64zM106.688 192.021h42.624v-42.666h-42.624zM170.688 192.021h42.624v-42.666h-42.624zM234.624 192.021h42.624v-42.666h-42.624zM298.624 192.021h42.624v-42.666h-42.624zM362.688 192.021h42.624v-42.666h-42.624zM106.688 128.043h42.624v-42.666h-42.624zM170.688 128.043h42.624v-42.666h-42.624zM234.624 128.043h42.624v-42.666h-42.624z" />
<glyph unicode="&#xe661;" d="M64 469.333v-494.507l174.549 101.632 188.118-109.546v502.421h-362.666zM106.666 49.045v377.622h128v-306.666l-13.589-6.656-114.41-64.298zM384 41.131l-118.656 72.214-9.344 6.208v307.115h128v-385.536z" />
<glyph unicode="&#xe662;" d="M229.994 164.821l-16.661-164.821 101.76 125.717 97.365-43.947 99.541 344.896-282.005-261.846zM512 426.667l-512-210.454 120.874-24.214 92.459-192-66.667 192 365.334 234.667z" />
<glyph unicode="&#xe663;" d="M256 50.048l-0.746-0.918-169.92 217.536c-7.744 9.77-21.334 21.568-21.334 48.384 0 47.061 38.294 85.333 85.334 85.333 47.061 0 106.666-38.272 106.666-85.333v70.677c-22.934 34.517-62.186 57.322-106.666 57.322-70.592 0-128-57.408-128-128 0-43.862 21.334-64 26.837-78.272l207.829-252.203v65.472zM256 50.048l0.747-0.918 169.92 217.536c7.744 9.77 21.334 21.568 21.334 48.384 0 47.061-38.293 85.333-85.334 85.333s-106.666-38.272-106.666-85.333v70.677c22.954 34.517 62.208 57.322 106.666 57.322 70.592 0 128-57.408 128-128 0-43.862-21.334-64-26.837-78.272l-207.829-252.203v65.472z" />
<glyph unicode="&#xe664;" d="M260.245 222.592l-89.579 89.579v-56.171h-149.333v-64h149.333v-59.008l89.579 89.6zM192 448v-71.829l42.666-42.667v71.83h172.565l-129.899-42.667v-256h-42.666v4.992l-42.666-42.666v-4.992h85.334v-85.334l192 64v405.334z" />
<glyph unicode="&#xe665;" d="M408.022 21.333c61.099 0 101.462 67.435 101.462 136 0 58.923-48.64 111.168-107.392 118.998l-9.75 26.006c-23.659 62.55-81.322 102.998-146.923 102.998-87.51 0-158.678-71.765-158.678-160 0-3.862 0.192-7.637 0.534-11.306-47.638-5.525-84.757-46.166-84.757-95.36 0-45.675 35.477-110.784 85.504-117.334h320zM297.92 196.779v0c18.944 27.264 57.067 30.038 74.091 38.315l0.149-0.427h14.762c41.813 0 79.872-32 79.872-72.491 0-39.296-26.048-98.176-68.118-98.176h-308.202c-23.445 0-45.291 50.624-45.291 79.51 0.022 32.918 29.142 56.81 63.531 49.834l33.088-7.894-8.128 32.149c-2.133 8.491-4.267 18.219-4.267 28.032 0 64.704 52.032 117.184 116.010 117.184 48.426 0 89.408-28.95 107.008-75.435-43.157-25.514-56.406-86.080-56.406-86.080z" />
<glyph unicode="&#xe666;" d="M212.181 269.589c-36.118 27.925-80.107 57.514-149.333 63.125l149.333-63.125zM212.181 205.589c-36.118 27.926-80.107 57.515-149.333 63.126l149.333-63.126zM148.16 182.379c-23.787 11.158-51.541 19.606-85.312 22.336l85.312-22.336zM278.486 269.589l149.333 63.125c-69.226-5.611-113.216-35.221-149.333-63.125zM278.486 205.589l149.333 63.126c-69.226-5.611-113.216-35.222-149.333-63.126zM427.818 204.715c-33.77-2.731-61.526-11.158-85.312-22.336l85.312 22.336zM470.486 461.589c-93.44 0-178.966-43.627-222.186-78.166h-5.91c-43.243 34.538-128.768 78.166-222.208 78.166h-20.181v-405.334h20.181c69.034 0 145.558-26.582 179.584-52.245 10.112-7.659 19.35-15.659 27.477-23.808l17.088-15.68h2.006l17.088 15.68c8.128 8.149 17.365 16.149 27.478 23.808 34.026 25.664 110.549 52.245 179.584 52.245h20.181v405.334h-20.182zM234.667 31.552c0 2.176-5.206 4.373-8.022 6.507-35.691 26.901-119.978 55.382-183.978 60.16v319.829c85.333-6.528 154.944-47.978 185.195-78.122l5.781-6.336h1.024v-302.038zM448 98.219c-64-4.779-148.288-33.259-183.978-60.16-2.816-2.134-8.022-4.352-8.022-6.507v302.038h1.046l5.781 6.336c30.23 30.144 99.84 71.595 185.173 78.123v-319.829z" />
<glyph unicode="&#xe667;" d="M391.765-32.491c-8.086-0.043-16.576 2.283-25.259 6.87l-82.688 43.456c-13.824 7.296-41.814 7.296-55.68 0l-82.645-43.456c-20.694-10.88-41.408-8.298-53.206 5.675-5.696 6.741-11.755 19.008-8.32 38.998l15.787 92.075c2.773 16.214-5.44 41.45-17.216 52.95l-66.922 65.195c-14.016 13.718-19.306 29.994-14.528 44.714 4.8 14.699 18.666 24.768 38.080 27.584l92.416 13.44c16.298 2.368 37.781 17.963 45.035 32.704l41.365 83.797c8.683 17.579 22.528 27.648 38.016 27.648s29.333-10.091 37.994-27.67l41.365-83.798c7.274-14.741 28.757-30.336 45.034-32.704l92.416-13.44c19.413-2.816 33.301-12.885 38.080-27.584 4.778-14.699-0.512-30.998-14.57-44.715l-66.923-65.195c-11.776-11.498-19.99-36.757-17.216-52.95l15.786-92.075c3.435-20.010-2.624-32.256-8.32-38.954-6.762-8.106-16.704-12.565-27.882-12.565zM256 66.24c17.707 0 34.645-3.798 47.68-10.666l82.197-43.2-15.68 91.541c-5.184 30.25 7.488 69.248 29.462 90.709l66.517 64.79-91.882 13.376c-30.421 4.416-63.594 28.501-77.163 56.042l-41.13 83.264-41.13-83.264c-13.568-27.541-46.742-51.627-77.162-56.042l-91.882-13.376 66.517-64.79c21.974-21.462 34.645-60.459 29.462-90.709l-15.68-91.541 82.176 43.2c13.056 6.89 29.994 10.666 47.702 10.666z" />
<glyph unicode="&#xe668;" d="M405.334 277.333v64c0 42.666-42.666 106.666-149.334 106.666s-149.333-64-149.333-106.666v-64h-42.666v-234.667c0-35.286 28.715-64 64-64h256c35.286 0 64 28.714 64 64v234.667h-42.666zM149.333 362.667c0 0 21.333 42.667 106.667 42.667s106.666-42.667 106.666-42.667v-85.333h-213.333v85.333zM405.334 42.667c0-11.755-9.558-21.334-21.334-21.334h-256c-11.776 0-21.334 9.579-21.334 21.334v192h298.666v-192zM234.667 112.576v-48.576h42.667v48.576c12.714 7.402 21.334 20.992 21.334 36.757 0 23.552-19.115 42.666-42.666 42.666s-42.666-19.115-42.666-42.666c0-15.744 8.619-29.355 21.334-36.757z" />
<glyph unicode="&#xe669;" d="M405.334 469.333c-85.334 0-106.666-64-106.666-106.666v-106.666h-298.666v-234.667c0-35.286 28.715-64 64-64h256c35.286 0 64 28.714 64 64v234.667h-42.666v128c0 0 0 42.666 64 42.666s64-42.666 64-42.666v-85.334h42.667v64c0 42.667-21.334 106.667-106.666 106.667zM341.334 21.333c0-11.755-9.558-21.334-21.334-21.334h-256c-11.776 0-21.334 9.579-21.334 21.334v192h298.666v-192zM170.667 91.243v-48.576h42.667v48.576c12.714 7.402 21.334 20.992 21.334 36.757 0 23.552-19.114 42.666-42.666 42.666s-42.666-19.115-42.666-42.666c0-15.744 8.619-29.354 21.334-36.757z" />
<glyph unicode="&#xe66a;" d="M234.667 91.243v-48.576h42.667v48.576c12.714 7.402 21.334 20.992 21.334 36.757 0 23.552-19.115 42.666-42.666 42.666s-42.666-19.115-42.666-42.666c0-15.744 8.619-29.354 21.334-36.757zM405.334 256v85.334c0 42.666-42.666 106.666-149.334 106.666s-149.333-64-149.333-106.666v-149.334h42.667v170.667c0 0 21.334 42.666 106.666 42.666s106.666-42.666 106.666-42.666v-106.667h-170.667v-42.667h213.333v-192c0-11.755-9.558-21.334-21.334-21.334h-256c-11.776 0-21.334 9.579-21.334 21.334v128h-42.666v-128c0-35.286 28.715-64 64-64h256c35.286 0 64 28.714 64 64v234.667h-42.666z" />
<glyph unicode="&#xe66b;" d="M320 162.923c0 0-131.882 0-181.333-115.413 0 0 82.582-32.96 181.333-32.96s181.333 32.96 181.333 32.96c-49.45 115.413-181.333 115.413-181.333 115.413zM320 179.371c49.45 0 82.411 49.451 82.411 131.904s-82.411 82.432-82.411 82.432-82.411 0-82.411-82.432 32.96-131.904 82.411-131.904zM160 235.627c16.256 0 30.208 6.742 41.28 18.88-4.096 16.576-6.357 35.52-6.357 56.768 0 31.68 12.181 51.114 27.178 63.104-16.341 37.654-62.101 37.739-62.101 37.739s-67.882 0-67.882-67.883c0-67.882 27.157-108.608 67.882-108.608zM224 182.421l-2.304 26.837c-33.237 12.714-61.696 12.8-61.696 12.8s-108.608 0-149.333-95.040c0 0 52.502-20.928 120.427-26.026 59.157 61.93 92.906 81.43 92.906 81.43z" />
<glyph unicode="&#xe66c;" d="M256 149.333c0 0-170.667 0-234.667-149.333 0 0 106.88-42.666 234.667-42.666s234.667 42.666 234.667 42.666c-64 149.333-234.667 149.333-234.667 149.333zM256 170.667c64 0 106.666 64 106.666 170.667s-106.666 106.666-106.666 106.666-106.666 0-106.666-106.666 42.666-170.667 106.666-170.667z" />
<glyph unicode="&#xe66d;" d="M503.211 43.52c-31.125 71.659-103.274 113.28-155.648 131.072 32.086 26.219 51.029 75.67 51.029 140.438 0 86.080-71.957 108.842-110.016 108.842-6.123 0-13.163-0.683-20.587-2.026-20.438 18.368-47.466 26.154-68.971 26.154-39.766 0-98.922-26.070-98.922-97.856 0-57.13 16.683-100.885 44.992-124.437-44.544-11.648-105.216-40.406-136.298-111.979l-8.79-20.245 20.544-8.106c1.834-0.726 27.093-10.411 65.322-18.966-4.374-7.424-8.49-14.912-11.968-22.89l-8.811-20.245 20.544-8.106c3.797-1.472 93.888-36.502 202.923-36.502s199.125 35.029 202.923 36.502l20.522 8.106-8.789 20.245zM355.925 315.008c0-73.195-25.813-118.656-67.349-118.656s-67.35 45.462-67.35 118.656c0 62.293 56.213 66.048 67.243 66.176 11.243-0.128 67.456-3.883 67.456-66.176zM199.018 405.333c2.155 0 10.688-0.363 20.438-3.52-22.827-16.426-40.896-43.648-40.896-86.805 0-23.445 2.538-44.842 7.21-63.914-31.403 10.005-43.008 55.786-43.008 99.050 0 51.862 46.976 55.083 56.256 55.19zM199.018 191.019c0.256 0 6.186-0.128 15.488-1.322 9.302-11.478 20.245-20.352 32.576-26.432-33.578-6.72-81.408-22.762-120.192-61.12-27.947 4.502-51.883 10.538-67.947 15.36 45.803 72.106 135.978 73.493 140.075 73.514zM288.555 21.333c-69.888 0-140.096 16-172.181 25.899 5.056 14.656 21.035 34.026 26.582 40.683 59.584 57.707 144.726 58.923 145.536 58.923 0.171 0 15.552-0.235 37.44-4.608 38.016-9.6 97.067-44.694 127.445-94.954-32.064-9.899-94.827-25.942-164.822-25.942z" />
<glyph unicode="&#xe66e;" d="M505.088 42.88c-35.776 85.504-104.832 125.291-158.358 143.766 23.894 32.79 36.971 80.896 37.483 139.733 0.875 99.328-81.024 126.315-124.438 126.678-43.435 0.384-125.781-25.173-126.678-124.501-0.512-58.816 11.733-107.115 35.029-140.352-53.824-17.493-123.626-56.149-160.853-140.971l-8.81-20.010 20.245-8.32c4.416-1.771 109.355-44.16 236.843-45.269 127.51-1.13 233.174 39.402 237.632 41.109l20.374 7.936-8.469 20.202zM259.264 410.389c8.512-0.17 82.986-3.797 82.283-83.648-0.555-63.915-17.942-112.512-47.616-133.355l-36.714-25.77-36.181 26.389c-29.333 21.376-45.845 70.272-45.269 134.187 0.704 79.872 75.243 82.176 83.499 82.197zM255.936 16.277c-86.314 0.747-163.157 22.336-199.274 34.282 39.040 68.374 105.195 95.082 155.989 105.322l44.565 8.981 44.394-9.728c50.624-11.158 116.31-39.019 154.176-108.032-36.245-11.349-113.28-31.594-199.851-30.827z" />
<glyph unicode="&#xe66f;" d="M165.12 106.667l261.546-85.334v384l-261.546-85.334h-79.787c-35.285 0-64-28.714-64-64v-85.334c0-35.286 28.715-64 64-64h9.109c-0.022-0.534-0.064-1.002-0.064-1.536-0.022-13.632 1.386-32.298 7.808-51.413 3.456-9.45 7.766-19.094 13.674-27.584 2.944-4.245 5.781-8.448 9.28-11.925 3.35-3.584 6.422-7.211 9.92-9.792 6.656-5.781 12.843-9.877 17.408-12.202 4.565-2.538 7.147-4.032 7.147-4.032l0.79-0.448c4.011-2.219 8.512-3.712 13.376-4.245 19.626-2.219 37.312 11.925 39.51 31.552s-11.947 37.291-31.552 39.552c0 0-1.238 0.086-3.35 0.341-2.326 0-5.418 0.49-9.109 1.622-2.070 0.298-3.84 1.408-6.037 2.24-2.282 0.747-4.352 2.24-6.698 3.712-4.714 2.88-9.302 7.296-13.845 12.288-8.042 9.45-14.357 21.589-18.517 31.872h40.938zM362.666 347.285l21.334 7.125v-282.176l-21.334 6.464v268.587zM192 290.176l149.333 49.962v-255.018l-149.333 51.37v153.685zM85.334 149.333c-11.776 0-21.334 9.579-21.334 21.334v85.334c0 11.755 9.558 21.333 21.334 21.333h85.334v-128h-85.334zM448 277.333h21.334v-128h-21.334z" />
<glyph unicode="&#xe670;" d="M426.666 128c-25.6 0-48.341-11.563-64-29.483l-156.245 78.123c4.245 11.478 6.912 23.744 6.912 36.694s-2.667 25.216-6.912 36.694l156.245 78.123c15.659-17.92 38.4-29.483 64-29.483 47.062 0 85.334 38.293 85.334 85.334s-38.272 85.334-85.334 85.334-85.334-38.293-85.334-85.334c0-6.123 0.704-12.075 1.942-17.834l-159.36-79.68c0.064-0.064 0.085-0.149 0.149-0.192-19.456 20.63-46.848 33.707-77.397 33.707-58.816 0-106.666-47.85-106.666-106.667s47.85-106.666 106.666-106.666c30.55 0 57.942 13.077 77.397 33.707-0.064-0.043-0.085-0.128-0.149-0.192l159.36-79.68c-1.238-5.76-1.942-11.712-1.942-17.834 0-47.040 38.272-85.333 85.334-85.333s85.334 38.293 85.334 85.333-38.272 85.334-85.334 85.334zM426.666 426.667c23.531 0 42.666-19.115 42.666-42.666s-19.136-42.666-42.666-42.666-42.666 19.115-42.666 42.666 19.136 42.666 42.666 42.666zM106.666 149.333c-35.285 0-64 28.714-64 64s28.715 64 64 64 64-28.715 64-64-28.714-64-64-64zM426.666-0c-23.531 0-42.666 19.115-42.666 42.666s19.136 42.666 42.666 42.666 42.666-19.115 42.666-42.666-19.136-42.666-42.666-42.666z" />
<glyph unicode="&#xe671;" d="M0 426.667v-298.666h208l-37.334-64h170.666l-37.334 64h208v298.666h-512zM469.334 170.667h-426.666v213.334h426.666v-213.334zM362.666 42.667h-213.333c-11.733 0-21.334-9.6-21.334-21.334s9.6-21.334 21.334-21.334h213.333c11.733 0 21.334 9.6 21.334 21.334s-9.6 21.334-21.334 21.334z" />
<glyph unicode="&#xe672;" d="M341.334 405.333h-170.667c-23.466 0-42.667-19.2-42.667-42.667v-298.666c0-23.466 19.2-42.666 42.666-42.666h170.666c23.466 0 42.666 19.2 42.666 42.666v298.666c0 23.466-19.2 42.667-42.666 42.667zM277.334 42.667h-42.666v42.666h42.666v-42.666zM341.334 106.667h-170.667v256h170.667v-256z" />
<glyph unicode="&#xe673;" d="M448 277.333h-149.333v-42.667h149.333v-170.667h-149.333c0-23.466-21.334-42.666-21.334-42.666h170.666c23.466 0 42.666 19.2 42.666 42.666v170.667c0 23.466-19.2 42.666-42.666 42.666zM213.333 405.333h-170.667c-23.466 0-42.666-19.2-42.666-42.667v-298.666c0-23.466 19.2-42.666 42.666-42.666h170.667c23.466 0 42.667 19.2 42.667 42.666v298.666c0 23.466-19.2 42.667-42.666 42.667zM149.333 42.667h-42.666v42.666h42.666v-42.666zM213.333 106.667h-170.667v256h170.667v-256z" />
<glyph unicode="&#xe674;" d="M85.334 128h64v64h-64v-64zM106.666 170.667h21.334v-21.334h-21.334v21.334zM170.667 128h64v64h-64v-64zM192 170.667h21.334v-21.334h-21.334v21.334zM170.667 42.667h64v64h-64v-64zM192 85.333h21.334v-21.334h-21.334v21.334zM85.334 42.667h64v64h-64v-64zM106.666 85.333h21.334v-21.334h-21.334v21.334zM256 128h64v64h-64v-64zM277.334 170.667h21.334v-21.334h-21.334v21.334zM213.333 256h21.333v21.334h-21.334v-21.334zM170.667 256h21.333v21.334h-21.334v-21.334zM85.334 213.333h341.334v192h-341.334v-192zM106.666 384h298.666v-149.333h-298.666v149.333zM426.666 469.333h-341.334c-35.349 0-64-28.65-64-64v-384c0-35.349 28.651-64 64-64h341.334c35.349 0 64 28.65 64 64v384c0 35.349-28.651 64-64 64zM448 21.333c0-11.798-9.536-21.334-21.334-21.334h-341.334c-11.797 0-21.334 9.536-21.334 21.334v384c0 11.797 9.536 21.333 21.334 21.333h341.334c11.798 0 21.334-9.536 21.334-21.333v-384zM256 42.667h64v64h-64v-64zM277.334 85.333h21.334v-21.334h-21.334v21.334zM341.334 42.667h85.334v149.334h-85.334v-149.333zM362.666 170.667h42.666v-106.666h-42.666v106.666zM128 256h21.334v21.334h-21.334v-21.334z" />
<glyph unicode="&#xe675;" d="M384 320v64.085l-64 63.915h-128l-64-63.915v-64.085h-64v-362.666h384v362.666h-64zM192 405.333h128l21.334-21.334h-170.667l21.333 21.334zM341.334 362.667v-42.666h-21.334v42.666h21.334zM298.666 362.667v-42.666h-85.334v42.666h85.334zM170.667 362.667h21.333v-42.666h-21.334v42.666zM405.334-0h-298.666v277.334h298.666v-277.334z" />
<glyph unicode="&#xe676;" d="M371.37 427.371h-230.742l-140.63-139.37 256-288.704 256 288.704-140.63 139.37zM460.672 276.736l-0.298 1.301h-189.909l91.050 98.326 99.157-99.626zM221.824 98.432l-149.824 158.272h98.666l-9.92-4.758 61.078-153.515zM182.123 256.704h147.712l-73.834-184.619-73.877 184.619zM341.334 256.704h98.624l-149.824-158.272 61.077 153.515-9.877 4.758zM256 293.781l-83.499 90.923h166.955l-83.456-90.923zM150.464 375.552l91.050-97.514h-189.93l-0.256-0.49 99.136 98.005z" />
<glyph unicode="&#xe677;" d="M149.333 85.333c0-11.782 9.552-21.334 21.333-21.334s21.334 9.551 21.334 21.334c0 11.782-9.552 21.334-21.334 21.334-11.782 0-21.334-9.551-21.334-21.334zM213.333 85.333c0-11.782 9.552-21.334 21.333-21.334s21.334 9.551 21.334 21.334c0 11.782-9.552 21.334-21.334 21.334-11.782 0-21.334-9.551-21.334-21.334zM277.334 85.333c0-11.782 9.551-21.334 21.334-21.334 11.782 0 21.334 9.551 21.334 21.334 0 11.782-9.551 21.334-21.334 21.334-11.782 0-21.334-9.551-21.334-21.334zM128 138.667c0-5.891 4.775-10.666 10.666-10.666s10.666 4.776 10.666 10.666c0 5.891-4.775 10.666-10.666 10.666-5.891 0-10.666-4.776-10.666-10.666zM170.667 138.667c0-5.891 4.775-10.666 10.667-10.666 5.891 0 10.666 4.776 10.666 10.666 0 5.891-4.775 10.666-10.666 10.666-5.891 0-10.666-4.776-10.666-10.666zM213.333 138.667c0-5.891 4.775-10.666 10.667-10.666 5.891 0 10.666 4.776 10.666 10.666 0 5.891-4.775 10.666-10.666 10.666-5.891 0-10.666-4.776-10.666-10.666zM256 138.667c0-5.891 4.776-10.666 10.666-10.666 5.891 0 10.666 4.776 10.666 10.666 0 5.891-4.776 10.666-10.666 10.666-5.891 0-10.666-4.776-10.666-10.666zM298.666 138.667c0-5.891 4.776-10.666 10.666-10.666s10.666 4.776 10.666 10.666c0 5.891-4.776 10.666-10.666 10.666-5.891 0-10.666-4.776-10.666-10.666zM320 181.333c0-5.891 4.776-10.666 10.666-10.666 5.891 0 10.666 4.776 10.666 10.666 0 5.891-4.776 10.666-10.666 10.666-5.891 0-10.666-4.776-10.666-10.666zM277.334 181.333c0-5.891 4.776-10.666 10.666-10.666 5.891 0 10.666 4.776 10.666 10.666 0 5.891-4.776 10.666-10.666 10.666-5.891 0-10.666-4.776-10.666-10.666zM234.667 181.333c0-5.891 4.775-10.666 10.667-10.666 5.891 0 10.666 4.776 10.666 10.666 0 5.891-4.775 10.666-10.666 10.666-5.891 0-10.666-4.776-10.666-10.666zM192 181.333c0-5.891 4.775-10.666 10.666-10.666s10.666 4.776 10.666 10.666c0 5.891-4.775 10.666-10.666 10.666-5.891 0-10.666-4.776-10.666-10.666zM149.333 181.333c0-5.891 4.775-10.666 10.667-10.666 5.891 0 10.666 4.776 10.666 10.666 0 5.891-4.775 10.666-10.666 10.666-5.891 0-10.666-4.776-10.666-10.666zM106.666 181.333c0-5.891 4.775-10.666 10.666-10.666s10.666 4.776 10.666 10.666c0 5.891-4.775 10.666-10.666 10.666-5.891 0-10.666-4.776-10.666-10.666zM418.048 333.483l19.094 38.165-149.974 78.848-52.501-130.474h-170.667v-320.022h42.666v-42.666h213.334v42.666h64v320.022h-106.666l34.731 70.314 105.984-56.853zM298.666-0h-149.333v21.334h149.333v-21.334zM341.334 277.355v-234.688h-234.667v21.334c11.797 0 21.333 9.536 21.333 21.334s-9.536 21.334-21.334 21.334v170.688h234.667z" />
<glyph unicode="&#xe678;" d="M21.334 405.333v-362.667h192v-42.666h277.334v405.334h-469.334zM234.667 85.333h-170.667v21.334h170.667v-21.334zM448 42.667h-192v21.334h192v-21.334zM448 341.333h-21.334v-21.334h21.334v-234.666h-192v128h-21.334v-85.334h-170.667v107.691c15.85 1.216 58.090 7.722 58.090 42.389l-58.090-38.72v123.306h384v-21.333zM442.091 235.413l-64 42.666c0-42.666 64-42.666 64-42.666zM405.334 341.333h-21.334v-21.334h21.334v21.334zM362.666 341.333h-21.334v-21.334h21.334v21.334zM320 341.333h-21.334v-21.334h21.334v21.334zM277.334 341.333h-21.334v-21.334h21.334v21.334zM234.667 341.333h-21.333v-21.334h21.334v21.334zM192 341.333h-21.334v-21.334h21.334v21.334zM149.333 341.333h-21.334v-21.334h21.334v21.334zM106.666 341.333h-21.334v-21.334h21.334v21.334z" />
<glyph unicode="&#xe679;" d="M234.667 298.667h-149.333v-170.667h149.333v170.667zM213.333 159.979c0 17.664-23.872 31.978-53.333 31.978s-53.334-14.315-53.334-31.978v117.355h106.666v-117.355zM128 223.957c0-17.673 14.327-32 32-32s32 14.327 32 32c0 17.673-14.327 32-32 32-17.673 0-32-14.327-32-32zM467.818 384h-426.666c-23.573 0-41.152-17.216-41.152-40.746v-256c0-23.594 17.578-44.587 41.152-44.587h426.666c23.552 0 44.182 20.992 44.182 44.587v256c0 23.531-20.63 40.747-44.182 40.747zM469.334 85.333h-426.666v256h426.666v-256zM277.334 298.667h149.334v-42.667h-149.333zM277.334 234.667h149.334v-21.334h-149.333zM277.334 192h149.334v-21.334h-149.333zM277.334 149.333h64v-21.334h-64zM362.624 149.333h21.376v-21.376h-21.376z" />
<glyph unicode="&#xe67a;" d="M511.702 213.333l-56.704 65.302 7.872 86.442-83.882 19.136-43.968 74.709-79.019-34.411-79.061 34.411-43.925-74.709-83.904-19.158 7.85-86.422-56.661-65.301 56.661-65.302-7.85-86.464 83.925-19.115 43.968-74.709 78.998 34.368 79.019-34.346 43.925 74.666 83.947 19.115-7.872 86.507 56.683 65.28zM352.406 79.296l-34.411-58.538-61.995 26.923-61.974-26.944-34.453 58.538-65.835 15.062 6.165 67.755-44.48 51.243 44.48 51.179-6.165 67.798 65.877 15.061 34.368 58.496 62.016-26.922 61.974 26.944 34.411-58.496 65.834-15.062-6.166-67.755 44.48-51.243-44.48-51.221 6.166-67.798-65.814-15.019zM256 349.419c-74.326 0-134.805-61.056-134.805-136.086 0-75.050 60.48-136.086 134.805-136.086s134.805 61.034 134.805 136.086c0 75.030-60.48 136.086-134.805 136.086zM256 98.197c-62.891 0-114.070 51.648-114.070 115.136s51.178 115.136 114.070 115.136c62.87 0 114.070-51.648 114.070-115.136s-51.2-115.136-114.070-115.136z" />
<glyph unicode="&#xe67b;" d="M426.666 298.667v64h-426.666v-256h64v-64h426.666v256h-64zM64 149.333h-21.334v170.667h341.334v-21.334h-320v-149.334zM448 85.333h-341.334v170.667h341.334v-170.667zM128 234.667v-128h298.666v128h-298.666zM149.333 128v85.334h69.994c-3.69-6.293-5.952-13.546-5.952-21.334v-42.666c0-7.786 2.262-15.019 5.974-21.334h-70.016zM320 160c0-17.664-14.336-32-32-32h-21.334c-17.664 0-32 14.336-32 32v21.334c0 17.664 14.336 32 32 32h21.334c17.664 0 32-14.336 32-32v-21.334zM405.334 128h-69.909c3.69 6.315 5.952 13.546 5.952 21.334v42.666c0 7.786-2.262 15.040-5.952 21.334h69.909v-85.334z" />
<glyph unicode="&#xe67c;" d="M453.888 320l-35.541 106.666h-55.744v21.334h-128v-21.334h-145.664l-35.541-106.666h31.957l42.666-362.666h251.243l42.666 362.666h31.957zM119.701 384h157.589v21.334h42.666v-21.334h67.669l7.125-21.333h-282.154l7.104 21.333zM135.872 256h235.606l-12.544-106.667h-210.518l-12.544 106.667zM165.974-0l-15.061 128h205.482l-15.040-128h-175.381zM373.974 277.333h-240.64l-5.013 42.666h250.667l-5.014-42.666z" />
<glyph unicode="&#xe67d;" d="M388.587 384h-67.413l-34.134 42.667h-31.040v21.334h-21.333v-21.334h-22.464l-28.459-42.667h-93.824c-35.285 0-68.587-19.285-68.587-54.592v-256c0-35.286 42.666-73.408 64-73.408v-42.666h64v42.666h170.667v-42.666h64v42.666c42.666 0 64 38.123 64 73.408v256c0 35.307-24.128 54.592-59.413 54.592zM223.616 405.333h53.162l17.046-21.334h-84.438l14.23 21.334zM405.334 73.408c0-11.755-4.992-30.741-16.747-30.741h-298.666c-11.776 0-25.92 18.986-25.92 30.741v256c0 11.776 14.144 11.926 25.92 11.926h298.666c11.755 0 16.747-0.149 16.747-11.926v-256zM85.334 128h298.666v170.667h-298.666v-170.667zM106.666 277.333h256v-128h-256v128zM213.312 64h42.624v42.666h-42.624v-42.666z" />
<glyph unicode="&#xe67e;" d="M128 128h256v128h-256v-128zM149.333 234.667h213.333v-85.334h-213.333v85.334zM128 298.667h256v-21.333h-256zM128 106.667h106.666v-21.334h-106.666zM128 64h64v-21.334h-64zM214.080 62.741h21.333v-21.334h-21.334zM277.334 106.667h106.666v-21.334h-106.666zM277.334 64h106.666v-21.334h-106.666zM426.666 384v20.075c0 24.725-21.291 43.925-73.92 43.925h-256c-35.285 0-54.080-29.952-54.080-65.259v-362.666c0-35.286 18.794-62.741 54.080-62.741h298.666c35.286 0 31.253 0 73.92 0v426.666h-42.666zM426.666-0h-329.92c-11.755 0-11.413 8.341-11.413 20.075v362.666c0 11.755-0.341 22.592 11.413 22.592h287.253v-21.333h-256v-42.667h298.666v-341.334z" />
<glyph unicode="&#xe67f;" d="M448 341.333v64h-448v-320h64v-64h448v320h-64zM64 128h-21.334v234.667h362.666v-21.333h-341.334v-213.334zM469.334 64h-362.666v234.667h362.666v-234.667z" />
<glyph unicode="&#xe680;" d="M418.176 360.427l30.166-30.165 30.166 30.165-75.413 75.413-30.187-30.165 30.166-30.166-45.269-45.269-90.517 90.518-30.166-30.166 30.166-30.166-226.24-226.283 51.712-51.733-59.264-91.584 91.584 59.243 51.712-51.712 226.304 226.283 30.166-30.166 30.166 30.166-90.517 90.496 45.269 45.29zM372.906 254.805l-45.291-45.248-45.248 45.27-15.082-15.083 45.248-45.27-30.166-30.187-45.248 45.269-15.083-15.082 45.248-45.269-30.166-30.166-45.248 45.269-15.083-15.082 45.248-45.269-45.248-45.248-75.413 75.435 196.075 196.096 75.456-75.434z" />
<glyph unicode="&#xe681;" d="M443.413 401.216c-128.875 18.326-257.514 18.368-386.688-0.043-33.386-4.992-56.725-36.587-56.725-70.464v-234.667c0-33.877 19.37-65.493 52.95-70.528 64.448-9.173 126.208-13.803 191.317-13.803s136.661 4.651 201.258 13.824c33.43 5.014 66.475 36.63 66.475 70.507v234.624c0 33.877-34.966 65.493-68.587 70.55zM42.666 330.667c0 12.906 3.797 26.41 16.299 28.288 56.362 8 110.635 12.266 167.018 13.056l-83.606-148.394h-99.712v107.050zM469.334 96.043c0-12.906-19.37-26.389-31.914-28.267-124.906-17.77-249.792-17.728-374.378-0.022-12.715 1.899-20.373 15.36-20.373 28.288v84.906h125.035l37.781 58.838 18.112-153.174 109.696 94.336h136.043v-84.906zM469.334 223.616h-151.21l-60.971-60.011-23.274 208.555c3.499 0.022 6.891 0.192 10.389 0.192 63.104 0 132.65-4.522 194.944-13.354 12.714-1.92 30.123-15.402 30.123-28.288v-107.094zM341.376 320.043h21.248v-21.376h-21.248zM384 320.043h21.376v-21.376h-21.376z" />
<glyph unicode="&#xe682;" d="M354.325 222.187l-92.394 19.84 42.646 198.528-146.901-219.776 74.454-16-46.954-218.646 169.152 236.054z" />
<glyph unicode="&#xe683;" d="M437.034 394.347c-49.92 49.899-131.115 49.899-181.056 0l-180.992-181.014c-49.898-49.92-49.92-131.115 0-181.014 49.92-49.899 131.094-49.899 181.013 0l181.035 181.014c49.877 49.92 49.92 131.115 0 181.014zM406.87 364.181c33.259-33.28 33.259-87.424 0-120.682l-90.538-90.496-120.661 120.662 90.496 90.517c33.301 33.28 87.424 33.28 120.704 0z" />
<glyph unicode="&#xe684;" d="M465.579 153.92c-1.707 1.002-3.456 1.92-5.269 2.837l-3.968 2.582-86.976 61.077 25.259 18.838c23.872-10.133 55.574 9.92 69.291 18.538 34.837 21.995 45.248 68.202 23.253 102.998-20.053 31.744-60.245 43.243-93.589 28.33l-0.363 0.64c-18.837 29.824-58.454 38.784-88.298 19.968-19.584-12.374-33.92-47.552-18.283-87.254l-30.293-22.698-34.666 24.341c14.379 40.17-1.002 74.88-20.95 86.656-30.422 17.92-69.76 7.744-87.616-22.656l-0.427-0.619c-33.77 13.803-73.6 1.088-92.672-31.254-20.886-35.456-9.066-81.322 26.41-102.25 13.974-8.214 46.336-27.243 69.867-16.384l29.504-20.672-88.704-66.411-3.883-2.688c-1.749-0.96-3.456-1.92-5.12-3.008-34.858-21.952-45.248-68.202-23.296-102.998 21.994-34.795 68.203-45.248 102.998-23.253 16.661 10.496 28.16 26.837 32.619 45.824l98.389 73.45 96.918-67.84c5.056-18.837 17.067-34.794 34.026-44.8 35.456-20.906 81.365-9.046 102.23 26.411 20.949 35.498 9.067 81.365-26.389 102.293zM295.466 272.299l48.384 35.84-11.37 18.048c-16.043 25.365-8.149 44.672-4.757 47.466 9.92 6.293 23.125 3.286 29.418-6.635l22.784-36.074 27.050 17.088c14.89 9.408 34.709 4.95 44.16-9.962 9.408-14.912 4.906-34.752-10.005-44.16-16.341-10.325-24.576-13.718-28.736-14.421l-9.685 15.338-76.010-55.253-39.723 26.411 8.49 6.314zM198.23 146.176l-77.718-56.49-0.896-10.538c-0.832-10.24-6.165-19.158-14.592-24.448-14.912-9.408-34.752-4.95-44.16 9.962s-4.95 34.709 9.963 44.118c1.814 1.173 3.755 2.134 5.76 2.88l21.334 14.25 95.125 70.507 38.698-25.834-33.514-24.406zM455.253 73.344c-8.96-15.211-28.651-20.288-43.861-11.328-8.576 5.077-14.144 13.781-15.317 24l-1.259 10.538-288.32 196.352-9.237-15.702c-4.181 0.576-12.502 3.755-29.184 13.547-15.19 9.002-20.245 28.63-11.328 43.84 9.002 15.21 28.629 20.288 43.819 11.328l49.28 20.501c5.952 10.176 19.094 13.504 29.206 7.552 3.413-2.667 11.925-21.76-3.286-47.574l-10.858-18.389 251.413-174.571 21.76-13.589c2.048-0.661 4.010-1.622 5.803-2.666 15.232-9.024 20.288-28.651 11.37-43.84z" />
<glyph unicode="&#xe685;" d="M447.936 112.171c0 0-149.035 149.568-149.312 165.163v21.376h42.752v128h-192.042v-128h42.667l0.085-21.376c-0.278-15.594-149.312-165.163-149.312-165.163-28.096-31.531-22.208-57.301-17.216-68.95s24.086-43.221 37.91-43.221h363.776c13.824 0 32.896 31.552 37.888 43.2s10.901 37.44-17.195 68.971zM425.942 60.011c-1.877-4.352-6.656-12.118-10.666-17.344h-339.84c-4.011 5.226-8.79 12.992-10.645 17.344-3.072 7.125 4.096 17.152 9.13 22.954 160.277 160.896 160.512 175.317 160.832 194.346v63.979l-42.816 0.042 0.064 42.624h106.624l0.064-42.624h-42.688l-0.022-64.747c0.32-18.282 0.555-32.725 160.832-193.622 5.014-5.803 12.16-15.829 9.13-22.954zM256 213.333h-21.376l-128-128v-21.376h277.376v21.376l-128 128zM213.376 149.333l21.248 42.624h21.376l21.376-42.624h-64z" />
<glyph unicode="&#xe686;" d="M42.666 469.333v-512h426.666v512h-426.666zM426.666-0h-341.334v426.666h341.334v-426.666zM405.334 384h-64v21.334h-170.667v-21.334h-64v-362.666h298.666v362.666zM192 384h128v-21.333h-128v21.333zM384 42.667h-256v320h42.666v-21.333h170.666v21.333h42.666v-320zM149.333 277.333h192v42.666h-192v-42.666zM149.333 234.667h192v21.333h-192v-21.333zM149.333 192h192v21.334h-192v-21.334zM149.333 149.333h192v21.334h-192v-21.334zM149.333 106.667h85.333v21.334h-85.334v-21.334z" />
<glyph unicode="&#xe687;" d="M341.163 298.667v-192h21.334v192h-21.334zM127.829 426.667v-85.333h-85.334v-298.667h85.334v-21.334c0-11.733 10.496-21.334 22.208-21.334h297.792v426.666h-320zM149.162 128h-21.334v128h21.334v-128zM405.163 85.333h-21.334v-21.334h21.334v-21.334h-234.667v21.334h21.333v21.334h-21.334v192h-64v-170.667h42.666v-21.334h-64v213.334h85.334v21.334h234.667v-234.667zM405.163 341.333h-234.667v42.666h234.667v-42.666zM362.496 64h-21.334v21.334h21.334v-21.334zM319.829 64h-21.334v21.334h21.334v-21.334zM277.163 64h-21.334v21.334h21.334v-21.334zM234.496 64h-21.333v21.334h21.334v-21.334zM298.496 298.667v-192h21.334v192h-21.334z" />
<glyph unicode="&#xe688;" d="M448 320.363v42.666h-300.245l-24.662 69.952c-4.010 11.072-16.213 17.472-27.306 13.483s-16.874-17.13-12.864-28.224l19.498-55.232h-59.755v-42.666h-42.666v-192h64v-170.666h362.666v170.666h64v192h-42.666zM64 149.696h-42.666v149.334h21.334v-64h21.334v-85.334zM384 0.363h-277.334v128h66.048c4.416-21.334 16.171-21.334 30.037-21.334h85.333c13.866 0 25.622 0 30.038 21.334h65.877v-128zM192 138.624v0.043c0 5.866 4.8 10.666 10.666 10.666h85.418c5.866 0 10.666-4.8 10.666-10.666v-0.043c0-5.866-4.8-10.666-10.666-10.666h-85.418c-5.867 0-10.666 4.8-10.666 10.666zM384 149.696h-65.877c-4.416 21.334-16.171 21.334-30.038 21.334h-85.334c-13.867 0-25.621 0-30.037-21.334h-66.048v106.667h277.334v-106.667zM405.334 277.696h-320v42.667h320v-42.667zM469.334 149.696h-42.666v85.334h21.334v64h21.334v-149.334z" />
<glyph unicode="&#xe689;" d="M405.334 448.021h-320v-448h170.666v149.333h149.333v298.666zM234.667 42.688h-106.667v106.666h106.666v-106.666zM234.667 170.688h-106.667v106.667h106.666v-106.667zM234.667 298.688h-106.667v106.666h106.666v-106.666zM362.666 170.688h-106.666v106.667h106.666v-106.667zM362.666 298.688h-106.666v106.666h106.666v-106.666zM299.2 104.363l42.666-130.368 16 68.757h66.666l-125.334 61.611z" />
<glyph unicode="&#xe68a;" d="M490.624-0.043h-42.624v21.376h-21.376v-21.376h-42.56v21.376h-21.376v-21.376h-42.624v21.376h-21.376v-21.376h-42.624v21.376h-21.376v-21.376h-42.624v21.376h-21.376v-21.376h-93.888l112.427 67.563 55.638 162.603 82.645-145.259 160.149 266.837-36.565 21.974-122.603-204.288-93.355 164.075-81.258-237.397-111.254-66.858v440.128h-42.624v-512h512v64h-21.376zM490.624 469.333h21.376v-21.376h-21.376zM426.624 469.333h21.376v-21.376h-21.376zM362.688 469.333h21.376v-21.376h-21.376zM298.688 469.333h21.376v-21.376h-21.376zM234.688 469.333h21.376v-21.376h-21.376zM170.688 469.333h21.376v-21.376h-21.376zM106.688 469.333h21.376v-21.376h-21.376zM42.688 469.333h21.376v-21.376h-21.376zM490.624 405.333h21.376v-21.376h-21.376zM426.624 405.333h21.376v-21.376h-21.376zM362.688 405.333h21.376v-21.376h-21.376zM298.688 405.333h21.376v-21.376h-21.376zM234.688 405.333h21.376v-21.376h-21.376zM170.688 405.333h21.376v-21.376h-21.376zM106.688 405.333h21.376v-21.376h-21.376zM42.688 405.333h21.376v-21.376h-21.376zM490.624 341.397h21.376v-21.376h-21.376zM362.688 341.397h21.376v-21.376h-21.376zM298.688 341.397h21.376v-21.376h-21.376zM170.688 341.397h21.376v-21.376h-21.376zM106.688 341.397h21.376v-21.376h-21.376zM42.688 341.397h21.376v-21.376h-21.376zM490.624 277.397h21.376v-21.376h-21.376zM298.688 277.397h21.376v-21.376h-21.376zM170.688 277.397h21.376v-21.376h-21.376zM106.688 277.397h21.376v-21.376h-21.376zM42.688 277.397h21.376v-21.376h-21.376zM490.624 213.355h21.376v-21.376h-21.376zM426.624 213.355h21.376v-21.376h-21.376zM106.688 213.355h21.376v-21.376h-21.376zM42.688 213.355h21.376v-21.376h-21.376zM490.624 149.355h21.376v-21.376h-21.376zM426.624 149.355h21.376v-21.376h-21.376zM234.688 149.355h21.376v-21.376h-21.376zM106.688 149.355h21.376v-21.376h-21.376zM42.688 149.355h21.376v-21.376h-21.376zM490.624 85.419h21.376v-21.376h-21.376zM426.624 85.419h21.376v-21.376h-21.376zM362.688 85.419h21.376v-21.376h-21.376zM234.688 85.419h21.376v-21.376h-21.376zM42.688 85.419h21.376v-21.376h-21.376z" />
<glyph unicode="&#xe68b;" d="M405.334 192v170.667h-170.667v85.334h-128v-85.334h-85.334v-128h85.334v-170.667h170.667v-85.334h128v85.334h85.334v128h-85.334zM213.333 320h149.333v-149.334h-42.666v106.667h-106.666v42.666zM277.334 234.667v-42.667h-42.666v42.667h42.666zM128 277.333h-64v42.666h64v-42.666zM362.666 21.333h-42.666v64h42.666v-64zM448 106.667h-298.666v298.667h42.666v-256h256v-42.666z" />
<glyph unicode="&#xe68c;" d="M467.088 395.76c-58.064 57.536-150.912 58.736-211.056 4.608-60.16 54.128-152.976 52.928-211.072-4.608-59.856-59.264-59.856-155.344 0-214.64 17.104-16.944 176.848-175.056 176.848-175.056 18.928-18.752 49.536-18.752 68.448 0 0 0 174.912 173.152 176.848 175.056 59.872 59.296 59.872 155.376-0.016 214.64zM444.288 203.712l-176.848-175.056c-6.288-6.256-16.544-6.256-22.8 0l-176.848 175.056c-47.2 46.72-47.2 122.736 0 169.456 45.504 45.040 118.656 46.624 166.544 3.552l21.696-19.52 21.68 19.52c47.904 43.072 121.056 41.504 166.56-3.552 47.2-46.704 47.2-122.72 0.016-169.456zM148.048 359.984c4.432 0 8-3.584 8-8s-3.584-8-8-8h-0.016c-28.704 0-51.984-23.28-51.984-51.984v-0.016c0-4.416-3.584-8-8-8s-8 3.584-8 8v0c0 37.536 30.416 67.952 67.936 67.984 0.032 0 0.032 0.016 0.064 0.016z" />
<glyph unicode="&#xe68d;" d="M414.624 269.712c-6.992 73.008-67.776 130.288-142.624 130.288-57.904 0-107.472-34.368-130.336-83.68-6.88 2.176-14.048 3.68-21.648 3.68-39.76 0-72-32.256-72-72 0-7.904 1.584-15.376 3.936-22.464-30.928-18.032-51.936-51.12-51.936-89.504 0-57.44 46.56-104 104-104v-0.032l287.984 0.032c66.288 0 120 53.712 120 120 0 58.496-41.936 107.088-97.376 117.68zM392 64.032v-0.032h-287.984c-39.696 0.032-72 32.32-72 72.032 0 25.6 13.488 48.72 36.064 61.872 21.936 12.592 23.44 15.088 14.24 37.712-1.552 4.656-2.304 8.704-2.304 12.368 0 22.064 17.936 40 40 40 0 0 10.496 0.752 21.648-3.68 18.352-7.312 20.352-0.32 29.024 18.544 18.352 39.568 58.112 65.152 101.312 65.152 57.6 0 105.216-43.568 110.784-101.344 1.968-22.912 1.968-22.912 25.84-28.368 41.376-7.904 71.376-44.192 71.376-86.256 0-48.528-39.472-88-88-88z" />
<glyph unicode="&#xe68e;" d="M510.096 279.088c-4.432 12.784-15.808 22.144-29.504 24.176l-133.216 19.808-57.904 120.224c-6.096 12.624-19.136 20.704-33.472 20.704s-27.376-8.080-33.472-20.704l-57.904-120.224-133.232-19.808c-13.68-2.032-25.056-11.392-29.472-24.176-4.4-12.816-1.072-26.928 8.592-36.56l97.632-97.472-22.64-135.216c-2.304-13.616 3.6-27.28 15.168-35.248 6.352-4.368 13.824-6.592 21.296-6.592 6.144 0 12.304 1.504 17.888 4.496l116.144 62.528 116.16-62.528c5.584-2.992 11.744-4.496 17.872-4.496 7.472 0 14.944 2.224 21.312 6.592 11.568 7.968 17.44 21.632 15.152 35.248l-22.656 135.216 97.664 97.472c9.648 9.648 12.96 23.76 8.592 36.56zM377.408 170.192c-8.192-8.16-11.904-19.664-10.032-30.944l22.656-135.216-116.16 62.496c-5.568 3.008-11.712 4.496-17.888 4.496-6.144 0-12.304-1.504-17.872-4.496l-116.16-62.496 22.656 135.216c1.888 11.28-1.824 22.784-10.016 30.944l-97.632 97.472 133.216 19.84c12.176 1.808 22.656 9.424 27.888 20.288l57.936 120.192 57.92-120.208c5.248-10.864 15.712-18.464 27.872-20.288l133.248-19.84-97.632-97.456z" />
<glyph unicode="&#xe68f;" d="M470.32 438.72c-26.32 26.288-60.976 41.28-95.136 41.28-28.816 0-55.344-10.688-74.72-30.032l-77.872-78.464c-0.24-0.224-0.512-0.368-0.752-0.608-0.128-0.128-0.208-0.304-0.336-0.416l0.032-0.032-165.264-166.544c-7.616-7.568-13.136-16.992-16.208-27.28l-37.584-136.128c-0.032-0.368-2.48-11.056-2.48-16.496 0-30.912 25.104-56 56.064-56 6.16 0 18.080 2.944 18.512 3.008l135.648 35.664c10.304 3.056 19.664 8.624 27.28 16.256l244.208 246.128c44.416 44.448 39.408 118.944-11.392 169.664zM256.224 99.28c-1.312 14.432-5.392 28.592-11.504 42.032l151.28 151.264c9.248-29.216 4.496-59.776-15.776-80.064-0.128-0.128-0.288-0.208-0.4-0.336l0.224-0.208-123.648-124.64c0 3.984 0.192 7.888-0.176 11.952zM236.688 155.904c-5.968 9.808-12.752 19.28-21.152 27.664-9.776 9.776-20.992 17.44-32.704 23.872l152.512 152.512c11.968-5.312 23.44-12.88 33.568-23.008 8.656-8.624 15.344-18.288 20.496-28.336l-152.72-152.704zM167.776 215.008c-14.816 5.968-30.336 9.376-45.888 9.584l123.248 124.192c18.864 18.4 46.336 23.696 73.392 16.992l-150.752-150.768zM66.672 2.032c-1.744-0.4-7.168-1.776-10.848-2.032-13.152 0.16-23.824 10.848-23.824 24 0.192 2.688 1.264 7.312 1.632 8.992l16.848 61.024c18.288 0.496 37.968-6.624 53.44-22.128 15.712-15.68 23.104-35.744 22.304-54.256l-59.552-15.6zM141.984 21.808c-0.384 21.472-9.12 43.808-26.752 61.408-16.672 16.688-38.496 26.32-60.256 27.184l15.936 57.712c1.152 3.84 3.44 7.632 6.256 10.944 32.096 22.976 81.456 16.192 115.744-18.128 36.272-36.256 41.872-89.376 13.936-121.088-1.856-0.976-3.728-1.904-5.744-2.496l-59.12-15.536zM459.056 291.648l-26.944-27.152c0 3.616 0.432 7.088 0.096 10.784-2.816 30.96-17.248 60.896-40.688 84.304-26.064 26.080-60.624 41.040-94.848 41.136l26.496 26.72c13.264 13.232 31.776 20.56 52.016 20.56 25.744 0 52.192-11.648 72.528-31.92 19.088-19.056 30.464-42.736 32.096-66.688 1.504-22.352-5.872-42.848-20.752-57.744z" />
<glyph unicode="&#xe690;" d="M502.624 325.168l-81.28 81.296c-6 6-14.16 9.376-22.624 9.376h-285.424c-8.48 0-16.624-3.376-22.624-9.376l-81.28-81.296c-6.288-6.272-9.424-14.544-9.392-22.832 0.048-7.52 2.736-15.024 8.096-21.056l223.984-238.528c6.080-6.848 14.784-10.752 23.92-10.752s17.84 3.904 23.904 10.752l224 238.528c5.472 6.16 8.16 13.872 8.096 21.568-0.064 8.096-3.216 16.16-9.376 22.32zM291.504 303.84h-71.024l35.52 29.584 35.504-29.584zM268.512 343.84l43.712 36.448 32.288-32.288-40.512-33.744-35.488 29.584zM208 314.256l-40.512 33.744 32.288 32.288 43.728-36.448-35.504-29.584zM295.84 287.84l-39.84-199.248-39.84 199.248h79.68zM312.16 287.84h78.496l-117.744-196.304 39.248 196.304zM316.464 303.84l39.408 32.816 32.816-32.816h-72.224zM331.312 383.84h56.192l-30.656-25.552-25.536 25.552zM256 354.24l-35.52 29.6h71.008l-35.488-29.6zM155.136 358.288l-30.656 25.552h56.208l-25.552-25.552zM156.128 336.656l39.392-32.816h-72.208l32.816 32.816zM199.84 287.84l39.248-196.304-117.76 196.304h78.512zM203.264 120.192l-157.44 167.648h56.864l100.576-167.648zM409.312 287.84h56.88l-157.472-167.68 100.592 167.68zM411.312 303.84l-43.088 43.088 36.752 30.64 73.712-73.728h-67.376zM106.976 377.6l36.816-30.672-43.104-43.088h-68.592l74.88 73.76z" />
<glyph unicode="&#xe691;" d="M432 400.064l-352-0.064c-8.848 0-16-7.088-16-15.936v-224c0-8.848 7.152-16 16-16h352c8.848 0 16 7.152 16 16v224c0 8.848-7.152 16-16 16zM432 160h-352v224.064h352v-224.064zM464 464h-416c-26.512 0-48-21.472-48-48v-320c0-26.464 21.408-47.904 47.84-47.968h160.16v-19.472l-99.872-12.976c-7.136-1.776-12.128-8.176-12.128-15.52 0-8.848 7.152-16 16-16h288c8.848 0 16 7.152 16 16 0 7.344-4.992 13.744-12.128 15.536l-99.872 12.96v19.472h160.16c26.432 0.064 47.84 21.504 47.84 47.968v320c0 26.528-21.504 48-48 48zM480 96c0-8.816-7.184-16-16-16h-416c-8.832 0-16 7.184-16 16v320c0 8.832 7.168 16 16 16h416c8.816 0 16-7.168 16-16v-320z" />
<glyph unicode="&#xe692;" d="M504.688 477.44c-2.656 1.712-5.68 2.56-8.688 2.56-3.088 0-6.192-0.88-8.88-2.688l-480-320c-4.944-3.28-7.664-9.056-7.024-14.976 0.608-5.904 4.448-11.008 9.968-13.184l125.184-50.096 58.864-103.008c2.816-4.944 8.048-8 13.712-8.064 0.064 0 0.112 0 0.176 0 5.616 0 10.832 2.976 13.712 7.776l33.232 55.408 155.12-62.032c1.904-0.768 3.904-1.136 5.936-1.136 2.72 0 5.408 0.688 7.84 2.064 4.224 2.368 7.12 6.528 7.936 11.312l80 480c1.040 6.288-1.744 12.592-7.088 16.064zM50.176 147.568l370.8 247.216-269.6-288.592c-1.424 0.848-2.688 1.968-4.256 2.592l-96.944 38.784zM163.024 94.944c-0.032 0.064-0.080 0.096-0.112 0.16l303.088 324.4-258.384-402.592-44.592 78.032zM403.472 6.256l-136.656 54.656c-3.248 1.28-6.624 1.712-9.968 1.904l210.432 326.208-63.808-382.768z" />
</font>
</defs>
</svg>
